Останься со мной / The Keeping Hours (2017) WEB-DL 1080p | Лицензия

 
Author Message

BOSS ®

Gender:

Longevity: 4 years 7 months

Posts: 14094

Location: ODESSA



: 22 ()

Mega Releaser 3 (1) Mega Seeder 1 (1) Top Keeper 3 (1)
Торрент-статистика

Post 13-May-2019 18:30

[Quote]

Информация о фильме
Название: Останься со мной
Оригинальное название: The Keeping Hours
Год выхода: 2017
Жанр: Драма, мелодрама, фэнтези
Режиссер: Карен Монкрифф
В ролях: Кэрри Кун, Ли Пейс, Анна Диоп, Эми Смарт, Молли Хэйгэн, Кристина Видаль, Ана Ортис, Рэй Бэйкер, Клифф Чемберлен, Сандер Томас, Джейн Дэйли, Джулиан ЛеТорелл, Карен Бакстер
О фильме:
7 лет назад супруги Марк и Элизабет потеряли в автоаварии 5-летнего сына Джейкоба. Горе разрушило семью — Марк ушёл в алкоголь и работу, Элизабет снова вышла замуж. Решив навсегда избавиться от болезненных воспоминаний, Марк начинает готовить их старый дом к продаже и приезжает туда, чтобы разобрать вещи. Но прошлое внезапно обрушивается на мужчину с новой силой — в доме материализуется призрак Джейкоба.

Страна: США
Студия: Blumhouse Productions
Продолжительность: 01:34:53
Перевод: Дублированный | Лицензия R5 | НД Плэй
Файл
Кодек: AVC
Качество: WEB-DL 1080p | The.Keeping.Hours.2017.1080p.NF.WEB-DL.DDP5.1.x264-NTG
Видео: MPEG-4 AVC, 3160 Kбит/с, 1920x1080, 23.976 кадр/с
Звук: Без Рекламы!
Аудио #1: Русский (АС3, 6ch, 384 Кбит/с, 48.0 KHz) Профессиональный (полное дублирование) НД Плэй
Аудио #2: Английский (E-АС3, 6ch, 640 Кбит/с, 48.0 KHz)
Субтитры: Русские (форс., полные), английские, французские
Трейлер

MediaInfo

Источник: The.Keeping.Hours.2017.1080p.NF.WEB-DL.DDP5.1.x264-NTG
General
Unique ID : 252029297590570138713920062477628874696 (0xBD9B13BD6EA51BF59954FD1780001FC8)
Complete name : The.Keeping.Hours.2017.WEB-DL.1080p.mkv
Format : Matroska
Format version : Version 4 / Version 2
File size : 2.77 GiB
Duration : 1 h 34 min
Overall bit rate mode : Variable
Overall bit rate : 4 180 kb/s
Encoded date : UTC 2019-05-12 14:35:12
Writing application : mkvmerge v7.1.0 ('Good Love') 64bit built on Jul 27 2014 13:06:55
Writing library : libebml v1.3.0 + libmatroska v1.4.1
Video
ID : 1
Format : AVC
Format/Info : Advanced Video Codec
Format profile : Main@L4
Format settings, CABAC : Yes
Format settings, RefFrames : 3 frames
Codec ID : V_MPEG4/ISO/AVC
Duration : 1 h 34 min
Bit rate mode : Variable
Bit rate : 3 160 kb/s
Maximum bit rate : 4 740 kb/s
Width : 1 920 pixels
Height : 1 080 pixels
Display aspect ratio : 16:9
Frame rate mode : Constant
Frame rate : 23.976 (24000/1001) FPS
Color space : YUV
Chroma subsampling : 4:2:0
Bit depth : 8 bits
Scan type : Progressive
Bits/(Pixel*Frame) : 0.064
Stream size : 2.09 GiB (75%)
Writing library : x264 core 148 r2715 7e75228
Encoding settings : cabac=1 / ref=3 / deblock=1:0:0 / analyse=0x1:0x111 / me=umh / subme=10 / psy=1 / psy_rd=1.00:0.00 / mixed_ref=1 / me_range=24 / chroma_me=1 / trellis=2 / 8x8dct=0 / cqm=0 / deadzone=21,11 / fast_pskip=1 / chroma_qp_offset=-2 / threads=8 / lookahead_threads=1 / sliced_threads=0 / nr=0 / decimate=1 / interlaced=0 / bluray_compat=0 / stitchable=1 / constrained_intra=0 / bframes=2 / b_pyramid=0 / b_adapt=2 / b_bias=0 / direct=3 / weightb=1 / open_gop=0 / weightp=2 / keyint=48 / keyint_min=25 / scenecut=0 / intra_refresh=0 / rc_lookahead=48 / rc=2pass / mbtree=1 / bitrate=3160 / ratetol=1.0 / qcomp=0.50 / qpmin=6 / qpmax=51 / qpstep=4 / cplxblur=20.0 / qblur=0.5 / vbv_maxrate=4740 / vbv_bufsize=6320 / nal_hrd=vbr / filler=0 / ip_ratio=1.40 / aq=1:1.00
Language : English
Default : Yes
Forced : No
Audio #1
ID : 2
Format : AC-3
Format/Info : Audio Coding 3
Format settings, Endianness : Big
Codec ID : A_AC3
Duration : 1 h 34 min
Bit rate mode : Constant
Bit rate : 384 kb/s
Channel(s) : 6 channels
Channel positions : Front: L C R, Side: L R, LFE
Sampling rate : 48.0 kHz
Frame rate : 31.250 FPS (1536 SPF)
Bit depth : 16 bits
Compression mode : Lossy
Stream size : 261 MiB (9%)
Title : Dub R5
Language : Russian
Service kind : Complete Main
Default : Yes
Forced : No
Audio #2
ID : 3
Format : E-AC-3
Format/Info : Enhanced Audio Coding 3
Format settings, Endianness : Big
Codec ID : A_EAC3
Duration : 1 h 34 min
Bit rate mode : Constant
Bit rate : 640 kb/s
Channel(s) : 6 channels
Channel positions : Front: L C R, Side: L R, LFE
Sampling rate : 48.0 kHz
Frame rate : 187.500 FPS (256 SPF)
Compression mode : Lossy
Stream size : 434 MiB (15%)
Language : English
Service kind : Complete Main
Default : No
Forced : No
Text #1
ID : 4
Format : UTF-8
Codec ID : S_TEXT/UTF8
Codec ID/Info : UTF-8 Plain Text
Duration : 1 h 28 min
Bit rate : 0 b/s
Count of elements : 3
Stream size : 174 Bytes (0%)
Title : Forced
Language : Russian
Default : Yes
Forced : No
Text #2
ID : 5
Format : UTF-8
Codec ID : S_TEXT/UTF8
Codec ID/Info : UTF-8 Plain Text
Duration : 1 h 28 min
Bit rate : 68 b/s
Count of elements : 1011
Stream size : 44.2 KiB (0%)
Language : Russian
Default : No
Forced : No
Text #3
ID : 6
Format : UTF-8
Codec ID : S_TEXT/UTF8
Codec ID/Info : UTF-8 Plain Text
Duration : 1 h 28 min
Bit rate : 50 b/s
Count of elements : 1250
Stream size : 33.0 KiB (0%)
Language : English
Default : No
Forced : No
Text #4
ID : 7
Format : UTF-8
Codec ID : S_TEXT/UTF8
Codec ID/Info : UTF-8 Plain Text
Duration : 1 h 27 min
Bit rate : 41 b/s
Count of elements : 957
Stream size : 26.4 KiB (0%)
Title : Canadian
Language : French
Default : No
Forced : No
Menu
00:00:00.000 : :Chapter 01
00:02:51.720 : :Chapter 02
00:07:02.440 : :Chapter 03
00:11:00.400 : :Chapter 04
00:14:03.440 : :Chapter 05
00:18:55.720 : :Chapter 06
00:23:51.040 : :Chapter 07
00:29:34.440 : :Chapter 08
00:35:13.800 : :Chapter 09
00:40:22.080 : :Chapter 10
00:44:55.640 : :Chapter 11
00:47:15.520 : :Chapter 12
00:51:32.200 : :Chapter 13
00:56:56.840 : :Chapter 14
01:01:42.480 : :Chapter 15
01:07:35.920 : :Chapter 16
01:10:58.480 : :Chapter 17
01:13:55.480 : :Chapter 18
01:19:00.560 : :Chapter 19
01:25:48.520 : :Chapter 20
01:31:00.200 : :Chapter 21

Скриншоты

[Profile] [PM]
Кто просматривает тему:

Forum Topic Author Size
Pop ( Pop)VA - Зарубежные свежаки радиостанций (2015) MP3 достали все 874 MB
Rock ( Pop)Сборник - Русские свежаки радиостанций Топ новинок поп музыки (2015) MP3 BOSS 713 MB
365 365: Вызов зодчим. Страсбургский собор / Le Défi des Bâtisseurs. La Cathédrale de Strasbourg / The builder's challenge - Strasbourg (Марк Ямпольски / Marc Ja... skorpionN 750 MB
BBC BBC: Армада. Неизвестная история (12 дней, чтобы спасти Англию) / Armada: The Untold Story (12 Days to Save England) [серии 1-3 из 3] (Робин Дешвуд / Robin Dashwood, Тим Дан / Tim Dunn) [2015... skorpionN 5.59 GB
BBC BBC: Армада. Неизвестная история (Армада: 12 дней, чтобы спасти Англию) / Armada: 12 Days to Save England [серии 1-3 из 3] (Робин Дешвуд / Robin Dashwood, Тим Дан / Tim D... skorpionN 2.16 GB
BBC BBC: Жанна д’Арк – святая воительница / Joan of Arc: God's Warrior (Luct Swindler) [2015 г., Документальный, постановочный, история, HDTVRip 720p] skorpionN 1.59 GB
BBC BBC: Замки: История укреплений Британии / Castles: Britain's Fortified History [серии 1-3 из 3] (Ben Southwell) [2014 г., Документально-постановочный, история, археология, пу... skorpionN 4.39 GB
BBC BBC: Как построить средневековый замок / Secrets of the Castle with Ruth, Peter and Tom [серии 1-5 из 5] (Стюарт Эллиотт) [2014 г., Документальный, постановочный, научно-познавательный, история,... skorpionN 6.61 GB
Display posts from previous:    

The time now is: Today 05:13

All times are GMT



You cannot post new topics in this forum
You cannot reply to topics in this forum
You cannot edit your posts in this forum
You cannot delete your posts in this forum
You cannot vote in polls in this forum
You cannot attach files in this forum
You cannot download files in this forum