Остановился поезд (Вадим Абдрашитов) [1982 г., криминальная драма, DVDRip-AVC]

 
Автор Сообщение

reversefile ®

Пол:

Стаж: 4 года 5 месяцев

Сообщений: 842

Откуда: ReverseFile.org



Награды: Нет

Торрент-статистика

Создавать темы 25-Июл-2014 01:16

[Цитировать]

Остановился поезд
Жанр: криминальная драма
Год выпуска: 1982
Продолжительность: 01:30:22
Режиссер: Вадим Абдрашитов
В ролях: Олег Борисов, Анатолий Солоницын, Михаил Глузский, Нина Русланова, Людмила Зайцева, Николай Скоробогатов, Петр Колбасин, Иосиф Рыклин
Описание: В основе сюжета - расследование железнодорожной катастрофы. Драматические события происходят и после катастрофы, обнажая сложный психологический конфликт. Что важнее: закон или честь мундира, правда или стабильность?
Бомба эпохи социалистического реализма. Фильм актуален и в современной России.
семпл: https://www.sendspace.com/file/fzji2z
Качество видео: DVDRip-AVC
Формат видео: MKV
Видео: 704x570@751x570 (1.32:1), 25 fps, AVC (H.264), 2119 kbps avg, 0.211 bit/pixel
Аудио: 48 kHz, AC3, 2 ch, 192 kbps avg

MI

Общее
Уникальный идентификатор : 239145599337708339140139155741268725249 (0xB3E9C45F9216836E8101B9C293574E01)
Полное имя : D:\КИНО\Остановился поезд.mkv
Формат : Matroska
Версия формата : Version 4 / Version 2
Размер файла : 1,46 Гбайт
Продолжительность : 1 ч. 30 м.
Общий поток : 2313 Кбит/сек
Дата кодирования : UTC 2014-07-23 15:46:01
Программа кодирования : mkvmerge v6.9.1 ('Blue Panther') 32bit built on Apr 18 2014 18:15:44
Библиотека кодирования : libebml v1.3.0 + libmatroska v1.4.1
Видео
Идентификатор : 1
Формат : AVC
Формат/Информация : Advanced Video Codec
Профиль формата : High@L4.1
Параметр CABAC формата : Да
Параметр ReFrames формата : 16 кадров
Идентификатор кодека : V_MPEG4/ISO/AVC
Продолжительность : 1 ч. 30 м.
Битрейт : 2119 Кбит/сек
Ширина : 704 пикселя
Высота : 570 пикселей
Соотношение сторон : 4:3
Соотношение сторон в оригинале : 4:3
Режим частоты кадров : Постоянный
Частота кадров : 25,000 кадров/сек
Цветовое пространство : YUV
Субдискретизация насыщенности : 4:2:0
Битовая глубина : 8 бит
Тип развёртки : Прогрессивная
Бит/(Пиксели*Кадры) : 0.211
Размер потока : 1,31 Гбайт (90%)
Библиотека кодирования : x264 core 138 r2358 9e941d1
Настройки программы : cabac=1 / ref=16 / deblock=1:-1:-1 / analyse=0x3:0x133 / me=umh / subme=10 / psy=1 / psy_rd=1.00:0.00 / mixed_ref=1 / me_range=32 / chroma_me=1 / trellis=2 / 8x8dct=1 / cqm=0 / deadzone=21,11 / fast_pskip=0 / chroma_qp_offset=-2 / threads=3 / lookahead_threads=1 / sliced_threads=0 / nr=0 / decimate=1 / interlaced=0 / bluray_compat=0 / constrained_intra=0 / bframes=10 / b_pyramid=0 / b_adapt=2 / b_bias=0 / direct=3 / weightb=1 / open_gop=0 / weightp=2 / keyint=250 / keyint_min=25 / scenecut=40 / intra_refresh=0 / rc_lookahead=60 / rc=2pass / mbtree=1 / bitrate=2119 / ratetol=1.0 / qcomp=0.60 / qpmin=10 / qpmax=51 / qpstep=4 / cplxblur=20.0 / qblur=0.5 / vbv_maxrate=62500 / vbv_bufsize=78125 / nal_hrd=none / ip_ratio=1.40 / aq=1:1.00
Default : Да
Forced : Нет
Аудио
Идентификатор : 2
Формат : AC-3
Формат/Информация : Audio Coding 3
Расширение режима : CM (complete main)
Параметр Endianness формата : Big
Идентификатор кодека : A_AC3
Продолжительность : 1 ч. 30 м.
Вид битрейта : Постоянный
Битрейт : 192 Кбит/сек
Каналы : 2 канала
Расположение каналов : Front: L R
Частота : 48,0 КГц
Битовая глубина : 16 бит
Метод сжатия : С потерями
Размер потока : 124 Мбайт (8%)
Default : Да
Forced : Нет

лог

---[Information] [22.07.2014 21:42:51] avs [info]: 704x570p 3265:3061 @ 25/1 fps (cfr)
---[Information] [22.07.2014 21:42:51] x264 [info]: using SAR=3265/3061
---[Information] [22.07.2014 21:42:51] x264 [info]: using cpu capabilities: MMX2 SSE2Fast LZCNT
---[Information] [22.07.2014 21:42:51] x264 [info]: profile High, level 4.1
---[Information] [23.07.2014 7:07:14] x264 [info]: frame I:685 Avg QP:16.50 size: 47831
---[Information] [23.07.2014 7:07:14] x264 [info]: frame P:39484 Avg QP:19.09 size: 21830
---[Information] [23.07.2014 7:07:14] x264 [info]: frame B:95386 Avg QP:23.88 size: 5677
---[Information] [23.07.2014 7:07:14] x264 [info]: consecutive B-frames: 1.4% 9.2% 44.5% 15.2% 10.4% 12.5% 3.5% 1.4% 1.3% 0.4% 0.3%
---[Information] [23.07.2014 7:07:14] x264 [info]: mb I I16..4: 9.3% 68.9% 21.8%
---[Information] [23.07.2014 7:07:14] x264 [info]: mb P I16..4: 1.4% 5.9% 0.7% P16..4: 40.7% 25.1% 15.8% 0.9% 0.2% skip: 9.1%
---[Information] [23.07.2014 7:07:14] x264 [info]: mb B I16..4: 0.1% 0.4% 0.0% B16..8: 32.6% 10.8% 2.7% direct:12.7% skip:40.7% L0:43.6% L1:38.1% BI:18.3%
---[Information] [23.07.2014 7:07:14] x264 [info]: 8x8 transform intra:72.3% inter:58.1%
---[Information] [23.07.2014 7:07:14] x264 [info]: direct mvs spatial:90.5% temporal:9.5%
---[Information] [23.07.2014 7:07:14] x264 [info]: coded y,uvDC,uvAC intra: 69.0% 60.8% 31.9% inter: 32.9% 19.9% 1.4%
---[Information] [23.07.2014 7:07:14] x264 [info]: i16 v,h,dc,p: 60% 15% 6% 19%
---[Information] [23.07.2014 7:07:14] x264 [info]: i8 v,h,dc,ddl,ddr,vr,hd,vl,hu: 15% 8% 17% 7% 9% 11% 10% 11% 11%
---[Information] [23.07.2014 7:07:14] x264 [info]: i4 v,h,dc,ddl,ddr,vr,hd,vl,hu: 14% 12% 7% 8% 12% 12% 12% 10% 13%
---[Information] [23.07.2014 7:07:14] x264 [info]: i8c dc,h,v,p: 45% 23% 23% 10%
---[Information] [23.07.2014 7:07:14] x264 [info]: Weighted P-Frames: Y:30.6% UV:7.9%
---[Information] [23.07.2014 7:07:14] x264 [info]: ref P L0: 42.1% 12.5% 12.7% 7.2% 5.4% 4.2% 3.4% 2.1% 1.9% 1.7% 1.5% 1.3% 1.2% 1.1% 1.0% 0.7%
---[Information] [23.07.2014 7:07:14] x264 [info]: ref B L0: 69.7% 10.0% 5.7% 3.0% 2.3% 1.9% 1.6% 1.0% 0.9% 0.8% 0.7% 0.6% 0.6% 0.5% 0.5%
---[Information] [23.07.2014 7:07:14] x264 [info]: kb/s:2119.05
---[Information] [23.07.2014 7:07:14] encoded 135555 frames, 4.00 fps, 2119.05 kb/s

скриншоты

[Профиль] [ЛС]

Создавать темы 06-Авг-2015 22:06 (спустя 1 год)

Топик был перенесен из форума Кино СССР в форум Кино СССР
sergej644
 
Кто просматривает тему:

Форум Тема Автор Размер
Pop ( Pop)VA - Зарубежные свежаки радиостанций (2015) MP3 достали все 874 MB
Rock ( Pop)Сборник - Русские свежаки радиостанций Топ новинок поп музыки (2015) MP3 BOSS 713 MB
365 365: Вызов зодчим. Страсбургский собор / Le Défi des Bâtisseurs. La Cathédrale de Strasbourg / The builder's challenge - Strasbourg (Марк Ямпольски / Marc Ja... skorpionN 750 MB
365 365: Сети истории / Storia in Rete [выпуски 1-10] (Александра Джиганте / Alessandra Gigante, Фабио Андриола / Fabio Andriola) [2009-2013 г., окументально-постановочный, история, арх... skorpionN 8.01 GB
BBC BBC: Армада. Неизвестная история (12 дней, чтобы спасти Англию) / Armada: The Untold Story (12 Days to Save England) [серии 1-3 из 3] (Робин Дешвуд / Robin Dashwood, Тим Дан / Tim Dunn) [2015... skorpionN 5.59 GB
BBC BBC: Армада. Неизвестная история (Армада: 12 дней, чтобы спасти Англию) / Armada: 12 Days to Save England [серии 1-3 из 3] (Робин Дешвуд / Robin Dashwood, Тим Дан / Tim D... skorpionN 2.16 GB
BBC BBC: Жанна д’Арк – святая воительница / Joan of Arc: God's Warrior (Luct Swindler) [2015 г., Документальный, постановочный, история, HDTVRip 720p] skorpionN 1.59 GB
BBC BBC: Замки: История укреплений Британии / Castles: Britain's Fortified History [серии 1-3 из 3] (Ben Southwell) [2014 г., Документально-постановочный, история, археология, пу... skorpionN 4.39 GB
Показать сообщения:    

Текущее время: Сегодня 00:31

Часовой пояс: GMT



Вы не можете начинать темы
Вы не можете отвечать на сообщения
Вы не можете редактировать свои сообщения
Вы не можете удалять свои сообщения
Вы не можете голосовать в опросах
Вы не можете прикреплять файлы к сообщениям
Вы не можете скачивать файлы