Оставшиеся в живых / Survivor (Джон Лойд / John Lyde) [2014, США, фантастика, DVDRip] VO (Andi)

 
Автор Сообщение

reversefile ®

Пол:

Стаж: 4 года 5 месяцев

Сообщений: 842

Откуда: ReverseFile.org



Награды: Нет

Торрент-статистика

Создавать темы 13-Авг-2014 01:00

[Цитировать]

Оставшиеся в живых / Survivor
Страна: США
Жанр: фантастика
Год выпуска: 2014
Продолжительность: 01:33:02
Перевод: Одноголосый закадровый (Andi)
Cубтитры: нет
Режиссер: Джон Лойд / John Lyde
В ролях: Даниэль Чачран, Кевин Сорбо, Пол Хант, Никки Поснер, Джеймс С. Моррис
Описание: После серии катаклизмов, приведших фактически к исчезновению жизни на Земле, остатки человечества загрузились на гигантский космический корабль и отправились на поиски нового дома. Спустя несколько десятилетий поиски увенчались успехом и была найдена планета, которая подходила для жизни. Проблема только в том, что она уже заселена и ее обитатели не очень рады гостям…
Доп. информация: Телевизионный фантастический фильм. По ТВ меркам снят очень хорошо. И если не будете предъявлять к фильму завышенные претензии, то не будете разочарованы…
Хотя, сразу стоит отметить, что у режиссера (который еще и сценарист) к середине фильма фантазия иссякает и дальше он выстраивает всю историю по схеме: красивая блондинка красиво бежит и ничто не должно ей мешать, а если из-за угла выскочит монстр, то она снесет ему голову и побежит дальше
Такое любование главной героиней не должно нас смущать, ведь исполнительница главной роли Даниэль Чачран – муза режиссера Лойда.
Над релизом работали
перевод: М. Васильев
озвучка: Andi
Сэмпл: https://yadi.sk/i/eqKHNNC7Yv6eE
Качество видео: DVDRip
Формат видео: AVI
Видео: 1599 Kbps, 720x402 (16:9) 23 976 fps MPEG 4 XviD
Аудио: 192 Kbps, 48.0 Khz 16 bits, 2 ch, AC 3

MediaInfo

General
Complete name : C:\Users\Владелец\Downloads\выжившей.avi
Format : AVI
Format/Info : Audio Video Interleave
File size : 1.17 GiB
Duration : 1h 33mn
Overall bit rate : 1 800 Kbps
Movie name : Survivor.2014.BRRip.XviD
Writing application : VirtualDubMod 1.5.10.2 (build 2540/release)
Writing library : VirtualDubMod build 2540/release
Comment : Survivor.2014.BRRip.XviD
Video
ID : 0
Format : MPEG-4 Visual
Format profile : Simple@L5
Format settings, BVOP : No
Format settings, QPel : No
Format settings, GMC : No warppoints
Format settings, Matrix : Default (H.263)
Codec ID : XVID
Codec ID/Hint : XviD
Duration : 1h 33mn
Bit rate : 1 599 Kbps
Width : 720 pixels
Height : 402 pixels
Display aspect ratio : 16:9
Frame rate : 23.976 fps
Color space : YUV
Chroma subsampling : 4:2:0
Bit depth : 8 bits
Scan type : Progressive
Compression mode : Lossy
Bits/(Pixel*Frame) : 0.230
Stream size : 1.04 GiB (89%)
Writing library : Lavc55.61.100
Audio
ID : 1
Format : AC-3
Format/Info : Audio Coding 3
Mode extension : CM (complete main)
Format settings, Endianness : Big
Codec ID : 2000
Duration : 1h 33mn
Bit rate mode : Constant
Bit rate : 192 Kbps
Channel(s) : 2 channels
Channel positions : Front: L R
Sampling rate : 48.0 KHz
Bit depth : 16 bits
Compression mode : Lossy
Stream size : 128 MiB (11%)
Alignment : Split accross interleaves
Interleave, duration : 42 ms (1.00 video frame)
Interleave, preload duration : 500 ms

Скриншот c названием фильма

Скриншоты





[Профиль] [ЛС]
Кто просматривает тему:

Форум Тема Автор Размер
Документальные HD Битва за доставку (сезон 6) / Shipping Wars [2014, Познавательный, History Channel HD, DVB] TorrentFilm 5.16 GB
Фильмы 2009 года Доставь мне удовольствие! / Fais-moi plaisir! (Эмманюэль Муре / Emmanuel Mouret) [2009, Франция, комедия, DVDRip] VO (Михаил Темнов) + Original Fre TorrentFilm 1.72 GB
Документальные HD Жанна Прохоренко. "Оставляю Вам Свою Любовь..." (Ирина Крячко) [2015, Документальный, HDTV 720p] TorrentFilm 1.46 GB
Эпоха СССР И.В. Сталин, Л.М.Каганович (авторы), О. В. Хлевнюк, Р. У. Дэвис, Л. П. Кошелева, Э. А. Рис, Л. А. Рогова (составители) - Сталин и Каганович. Переписка. 1931 - 1936 гг [2001, DjVu] sergej644 17 MB
Зарубежные сериалы Кайф с доставкой / High Maintenance [S01] (2016) HDTVRip 720p | Jaskier Russian Mafia 4.1 GB
Отечественные cериалы Муж с доставкой на дом [01-04 из 04] (2016) SATRip от Files-x Russian Mafia 2.34 GB
Отечественные cериалы Муж с доставкой на дом [01-04 из 04] (2016) SATRip-AVC от Files-x Russian Mafia 1.73 GB
Праздничные концерты Новый год с доставкой на дом (2014.12.31-2015.01.04) SATRip sergej644 2.23 GB
Показать сообщения:    

Текущее время: Сегодня 04:47

Часовой пояс: GMT



Вы не можете начинать темы
Вы не можете отвечать на сообщения
Вы не можете редактировать свои сообщения
Вы не можете удалять свои сообщения
Вы не можете голосовать в опросах
Вы не можете прикреплять файлы к сообщениям
Вы не можете скачивать файлы