Оставленные / Left Behind (Вик Армстронг / Vic Armstrong) [2014, США, фантастика, триллер, драма, BDRip] Dub

 
Автор Сообщение

TorrentFilm ®

Пол:

Стаж: 1 год 11 месяцев

Сообщений: 7741



Награды: Нет

Торрент-статистика

Создавать темы 02-Янв-2015 00:01

[Цитировать]

Оставленные / Left Behind
«Начало конца»
-Страна: США / Stoney Lake Entertainment
Жанр: фантастика, триллер, драма
Год выпуска: 2014
Продолжительность: 01:50:05
Перевод: Профессиональный (дублированный) лицензия BD
Cубтитры: нет
Режиссёр: Вик Армстронг / Vic Armstrong
В ролях: Николас Кейдж, Чад Майкл Мюррэй, Касси Томсон, Никки Уилан, Джордин Спаркс, Лиа Томпсон, Уильям Рэгсдэйл, Лора Кайюэтт, Куинтон Аарон, Мартин Клебба.
Описание: История летчика Рэйфорда Стила, столкнувшегося во время рейса с исчезновением нескольких пассажиров прямо из салона самолета. Вскоре становится известно о случаях бесследного исчезновения и в других местах. Людей охватывает паника.-Рейтинг
imdb.com: 3.10 (10 912)
kinopoisk.ru: 4.266 (3 880)
MPAA: - детям до 13 лет просмотр не желателен-Сэмпл: http://multi-up.com/1023126-Качество видео: BDRip [Left Behind. 2014. BDRemux - ylnian]
Формат видео: AVI
Видео: XviD build 65, 720x304 (2.37:1), 23.976 fps, ~1510 kbps avg, 0.288 bit/pixel
Аудио: 48 kHz, AC3 Dolby Digital, 3/2 (L,C,R,l,r) + LFE ch, ~384 kbps avg (Dub)
-

MediaInfo

Общее
Полное имя : D:\Left.Behind.2014.GER-Transfer.Dub.BDRip.1,46Gb.XviD.AC3.avi
Формат : AVI
Формат/Информация : Audio Video Interleave
Размер файла : 1,46 Гбайт
Продолжительность : 1 ч. 50 м.
Общий поток : 1903 Кбит/сек
Название фильма : Left Behind 2014. [GER-Transfer]
Режиссёр : Vic Armstrong
Дата записи : 27.12.2014
Программа кодирования : VirtualDubModRus 1.5.10.2 (build 2542/release)
Библиотека кодирования : VirtualDubMod build 2542/release
Правообладатель : Rutracker.org
Примечание : BDRip by MooN_WalkeR
Видео
Идентификатор : 0
Формат : MPEG-4 Visual
Профиль формата : Advanced Simple@L5
Параметр BVOP формата : 1
Параметр QPel формата : Нет
Параметр GMC формата : Без точки перехода
Параметр матрицы формата : Выборочная
Идентификатор кодека : XVID
Идентификатор кодека/Подсказка : XviD
Продолжительность : 1 ч. 50 м.
Битрейт : 1510 Кбит/сек
Ширина : 720 пикселей
Высота : 304 пикселя
Соотношение сторон : 2,35:1
Частота кадров : 23,976 кадра/сек
Цветовое пространство : YUV
Субдискретизация насыщенности : 4:2:0
Битовая глубина : 8 бит
Тип развёртки : Прогрессивная
Метод сжатия : С потерями
Бит/(Пиксели*Кадры) : 0.288
Размер потока : 1,16 Гбайт (79%)
Библиотека кодирования : XviD 65
Аудио
Идентификатор : 1
Формат : AC-3
Формат/Информация : Audio Coding 3
Расширение режима : CM (complete main)
Параметр Endianness формата : Big
Идентификатор кодека : 2000
Продолжительность : 1 ч. 50 м.
Вид битрейта : Постоянный
Битрейт : 384 Кбит/сек
Каналы : 6 каналов
Расположение каналов : Front: L C R, Side: L R, LFE
Частота : 48,0 КГц
Битовая глубина : 16 бит
Метод сжатия : С потерями
Размер потока : 302 Мбайт (20%)
Выравнивание : Разделение по промежуткам
Продолжительность промежутка : 42 мс. (1,00 видеокадр)
Время предзагрузки промежутка : 500 мс.
Заголовок : Dub
[Профиль] [ЛС]
Кто просматривает тему:

Форум Тема Автор Размер
Документальные HD Битва за доставку (сезон 6) / Shipping Wars [2014, Познавательный, History Channel HD, DVB] TorrentFilm 5.16 GB
Фильмы 2009 года Доставь мне удовольствие! / Fais-moi plaisir! (Эмманюэль Муре / Emmanuel Mouret) [2009, Франция, комедия, DVDRip] VO (Михаил Темнов) + Original Fre TorrentFilm 1.72 GB
Документальные HD Жанна Прохоренко. "Оставляю Вам Свою Любовь..." (Ирина Крячко) [2015, Документальный, HDTV 720p] TorrentFilm 1.46 GB
Эпоха СССР И.В. Сталин, Л.М.Каганович (авторы), О. В. Хлевнюк, Р. У. Дэвис, Л. П. Кошелева, Э. А. Рис, Л. А. Рогова (составители) - Сталин и Каганович. Переписка. 1931 - 1936 гг [2001, DjVu] sergej644 17 MB
Зарубежные сериалы Кайф с доставкой / High Maintenance [S01] (2016) HDTVRip 720p | Jaskier Russian Mafia 4.1 GB
Отечественные cериалы Муж с доставкой на дом [01-04 из 04] (2016) SATRip от Files-x Russian Mafia 2.34 GB
Отечественные cериалы Муж с доставкой на дом [01-04 из 04] (2016) SATRip-AVC от Files-x Russian Mafia 1.73 GB
Праздничные концерты Новый год с доставкой на дом (2014.12.31-2015.01.04) SATRip sergej644 2.23 GB
Показать сообщения:    

Текущее время: Сегодня 02:43

Часовой пояс: GMT



Вы не можете начинать темы
Вы не можете отвечать на сообщения
Вы не можете редактировать свои сообщения
Вы не можете удалять свои сообщения
Вы не можете голосовать в опросах
Вы не можете прикреплять файлы к сообщениям
Вы не можете скачивать файлы