Оставленные / Left Behind (2014) BDRip-AVC от ExKinoRay | D | Лицензия

 
Автор Сообщение

sergej644 ®

Пол:

Стаж: 4 года 11 месяцев

Сообщений: 6046

Откуда: Soviet Union



Награды: Нет

Торрент-статистика

Создавать темы 19-Ноя-2014 18:49

[Цитировать]

Информация о фильме
Название: Оставленные
Оригинальное название: Left Behind
Год выхода: 2014
Жанр: Фантастика, триллер, драма
Режиссер: Вик Армстронг
В ролях: Николас Кейдж, Чад Майкл Мюррэй, Касси Томсон, Никки Уилан, Джордин Спаркс, Лиа Томпсон, Куинтон Аарон, Мартин Клебба, Лаура Кайот, Стефани Онор
О фильме:
История летчика Рэйфорда Стила, столкнувшегося во время рейса с исчезновением нескольких пассажиров прямо из салона самолета. Вскоре становится известно о случаях бесследного исчезновения и в других местах. Людей охватывает паника.

Страна: США
Студия: Stoney Lake Entertainment
Продолжительность: 01:45:34
Перевод: Дублированный
Файл
Качество: BDRip (AVC)
Видео: MPEG-4 AVC, 1822 Кбит/с, 1024x428
Аудио: AC3, 6 ch, 448 Кбит/с
Сохранены оригинальные чаптеры как на BLu-Ray

MI

General
Unique ID : 188247475984196708668132087577262034155 (0x8D9F2524F7A93322B6C5810DE1620CEB)
Complete name : C:Ostavlennye.2014.D.BDRip.AVC.ExKinoRay.mkv
Format : Matroska
Format version : Version 2
File size : 1.67 GiB
Duration : 1h 45mn
Overall bit rate : 2 271 Kbps
Movie name : Ostavlennye 2014 from ExKinoRay
Encoded date : UTC 2014-11-19 16:58:04
Writing application : mkvmerge v4.9.1 ('Ich will') built on Jul 11 2011 23:53:15
Writing library : libebml v1.2.1 + libmatroska v1.1.1
Video
ID : 1
Format : AVC
Format/Info : Advanced Video Codec
Format profile : High@L4.1
Format settings, CABAC : Yes
Format settings, ReFrames : 9 frames
Codec ID : V_MPEG4/ISO/AVC
Duration : 1h 45mn
Bit rate : 1 822 Kbps
Width : 1 024 pixels
Height : 428 pixels
Display aspect ratio : 2.40:1
Frame rate mode : Constant
Frame rate : 25.000 fps
Color space : YUV
Chroma subsampling : 4:2:0
Bit depth : 8 bits
Scan type : Progressive
Bits/(Pixel*Frame) : 0.166
Stream size : 1.31 GiB (78%)
Title : Enigma-Vladislav71
Writing library : x264 core 133 r2334 a3ac64b
Encoding settings : cabac=1 / ref=9 / deblock=1:-2:-2 / analyse=0x3:0x113 / me=umh / subme=11 / psy=1 / psy_rd=1.00:0.15 / mixed_ref=1 / me_range=32 / chroma_me=1 / trellis=2 / 8x8dct=1 / cqm=0 / deadzone=21,11 / fast_pskip=0 / chroma_qp_offset=-3 / threads=12 / lookahead_threads=2 / sliced_threads=0 / nr=0 / decimate=0 / interlaced=0 / bluray_compat=0 / constrained_intra=0 / bframes=9 / b_pyramid=2 / b_adapt=2 / b_bias=0 / direct=3 / weightb=1 / open_gop=0 / weightp=2 / keyint=250 / keyint_min=25 / scenecut=40 / intra_refresh=0 / rc=2pass / mbtree=0 / bitrate=1822 / ratetol=1.0 / qcomp=0.60 / qpmin=0 / qpmax=69 / qpstep=4 / cplxblur=20.0 / qblur=0.5 / ip_ratio=1.40 / pb_ratio=1.30 / aq=1:1.00
Language : English
Default : Yes
Forced : No
Color primaries : BT.709
Transfer characteristics : BT.709
Matrix coefficients : BT.709
Audio
ID : 2
Format : AC-3
Format/Info : Audio Coding 3
Mode extension : CM (complete main)
Format settings, Endianness : Big
Codec ID : A_AC3
Duration : 1h 45mn
Bit rate mode : Constant
Bit rate : 448 Kbps
Channel(s) : 6 channels
Channel positions : Front: L C R, Side: L R, LFE
Sampling rate : 48.0 KHz
Bit depth : 16 bits
Compression mode : Lossy
Stream size : 338 MiB (20%)
Title : DUB [лицензия]
Language : Russian
Default : Yes
Forced : No
Menu
00:00:00.000 : en:Chapter 01
00:10:54.680 : en:Chapter 02
00:17:05.000 : en:Chapter 03
00:24:21.679 : en:Chapter 04
00:30:13.640 : en:Chapter 05
00:40:34.360 : en:Chapter 06
00:47:51.239 : en:Chapter 07
00:55:12.640 : en:Chapter 08
01:03:48.680 : en:Chapter 09
01:11:21.080 : en:Chapter 10
01:23:02.400 : en:Chapter 11
01:30:03.120 : en:Chapter 12

Скриншоты



-Авторы релиза:
[Профиль] [ЛС]
Кто просматривает тему:

Форум Тема Автор Размер
Документальные HD Битва за доставку (сезон 6) / Shipping Wars [2014, Познавательный, History Channel HD, DVB] TorrentFilm 5.16 GB
Фильмы 2009 года Доставь мне удовольствие! / Fais-moi plaisir! (Эмманюэль Муре / Emmanuel Mouret) [2009, Франция, комедия, DVDRip] VO (Михаил Темнов) + Original Fre TorrentFilm 1.72 GB
Документальные HD Жанна Прохоренко. "Оставляю Вам Свою Любовь..." (Ирина Крячко) [2015, Документальный, HDTV 720p] TorrentFilm 1.46 GB
Эпоха СССР И.В. Сталин, Л.М.Каганович (авторы), О. В. Хлевнюк, Р. У. Дэвис, Л. П. Кошелева, Э. А. Рис, Л. А. Рогова (составители) - Сталин и Каганович. Переписка. 1931 - 1936 гг [2001, DjVu] sergej644 17 MB
Зарубежные сериалы Кайф с доставкой / High Maintenance [S01] (2016) HDTVRip 720p | Jaskier Russian Mafia 4.1 GB
Отечественные cериалы Муж с доставкой на дом [01-04 из 04] (2016) SATRip от Files-x Russian Mafia 2.34 GB
Отечественные cериалы Муж с доставкой на дом [01-04 из 04] (2016) SATRip-AVC от Files-x Russian Mafia 1.73 GB
Праздничные концерты Новый год с доставкой на дом (2014.12.31-2015.01.04) SATRip sergej644 2.23 GB
Показать сообщения:    

Текущее время: Сегодня 07:15

Часовой пояс: GMT



Вы не можете начинать темы
Вы не можете отвечать на сообщения
Вы не можете редактировать свои сообщения
Вы не можете удалять свои сообщения
Вы не можете голосовать в опросах
Вы не можете прикреплять файлы к сообщениям
Вы не можете скачивать файлы