Оставленные / Left Behind (2014) BDRip 1080p от MediaClub | D | Лицензия

 
Автор Сообщение

sergej644 ®

Пол:

Стаж: 4 года 11 месяцев

Сообщений: 6042

Откуда: Soviet Union



Награды: Нет

Торрент-статистика

Создавать темы 12-Ноя-2014 08:05

[Цитировать]

Информация о фильме
Название: Оставленные
Оригинальное название: Left Behind
Год выпуска: 2014
Жанр: Фантастика, триллер, драма
Режиссер: Вик Армстронг
В ролях: Николас Кейдж, Чад Майкл Мюррэй, Касси Томсон, Никки Уилан, Джордин Спаркс, Лиа Томпсон, Куинтон Аарон, Мартин Клебба, Лаура Кайот, Стефани Онор
Описание: История летчика Рэйфорда Стила, столкнувшегося во время рейса с исчезновением нескольких пассажиров прямо из салона самолета. Вскоре становится известно о случаях бесследного исчезновения и в других местах. Людей охватывает паника.

Выпущено: США / Stoney Lake Entertainment
Продолжительность: 01:45:34
Перевод: Дублированный
Файл
Качество: BDRip 1080p
Видео: MPEG-4 AVC, 8000 Кбит/с, 1920x804, 25.000 кадр/с
Аудио #1: Русский (AC3, 6 ch, 640 Кбит/с) / Дублированный (Blu-ray RUS)
Аудио #2: Русский (DTS, 6 ch, 1510 Кбит/с) / Дублированный (Blu-ray RUS)
Семпл

Скриншоты

MI

x264 [info]: frame I:1394  Avg QP:13.77  size:177420
x264 [info]: frame P:39107 Avg QP:16.29  size: 71749
x264 [info]: frame B:117859 Avg QP:18.02  size: 27792
x264 [info]: consecutive B-frames:  3.8%  5.2% 13.9% 16.9% 15.4% 36.4%  5.8%  0.8%  0.8%  0.8%
***************************************************************************************************************
Общее
Уникальный идентификатор                 : 228166082510305400131457047529396755699 (0xABA730663CAB1345BC654DA07655DCF3)
Полное имя                               : D:Mои раздачиOstavlennye.2014.BDRip.1080p-MediaClub.mkv
Формат                                   : Matroska
Версия формата                           : Version 4 / Version 2
Размер файла                             : 7,48 Гбайт
Продолжительность                        : 1 ч. 45 м.
Общий поток                              : 10,1 Мбит/сек
Название фильма                          : -=MediaClub-kaspr=-
Дата кодирования                         : UTC 2014-11-12 04:51:10
Программа кодирования                    : mkvmerge v6.9.1 ('Blue Panther') 64bit built on Apr 18 2014 18:23:38
Библиотека кодирования                   : libebml v1.3.0 + libmatroska v1.4.1
Видео
Идентификатор                            : 1
Формат                                   : AVC
Формат/Информация                        : Advanced Video Codec
Профиль формата                          : High@L4.1
Параметр CABAC формата                   : Да
Параметр ReFrames формата                : 5 кадров
Идентификатор кодека                     : V_MPEG4/ISO/AVC
Продолжительность                        : 1 ч. 45 м.
Битрейт                                  : 8000 Кбит/сек
Ширина                                   : 1920 пикселей
Высота                                   : 804 пикселя
Соотношение сторон                       : 2,40:1
Режим частоты кадров                     : Постоянный
Частота кадров                           : 25,000 кадров/сек
Цветовое пространство                    : YUV
Субдискретизация насыщенности            : 4:2:0
Битовая глубина                          : 8 бит
Тип развёртки                            : Прогрессивная
Бит/(Пиксели*Кадры)                      : 0.207
Размер потока                            : 5,75 Гбайт (77%)
Заголовок                                : -=MediaClub-kaspr=-
Библиотека кодирования                   : x264 core 142 r2431+42 c69a006 tMod [8-bit@4:2:0 X86_64]
Настройки программы                      : cabac=1 / ref=5 / deblock=1:-3:-3 / analyse=0x3:0x113 / me=umh / subme=11 / psy=1 / fade_compensate=0.00 / psy_rd=1.00:0.20 / mixed_ref=1 / me_range=32 / chroma_me=1 / trellis=2 / 8x8dct=1 / cqm=0 / deadzone=21,11 / fast_pskip=0 / chroma_qp_offset=-3 / threads=12 / lookahead_threads=2 / sliced_threads=0 / nr=0 / decimate=0 / interlaced=0 / bluray_compat=0 / constrained_intra=0 / fgo=0 / bframes=9 / b_pyramid=2 / b_adapt=2 / b_bias=0 / direct=3 / weightb=1 / open_gop=0 / weightp=2 / keyint=250 / keyint_min=25 / scenecut=40 / intra_refresh=0 / rc=2pass / mbtree=0 / bitrate=8000 / ratetol=1.0 / qcomp=0.60 / qpmin=0:0:0 / qpmax=69:69:69 / qpstep=4 / cplxblur=20.0 / qblur=0.5 / ip_ratio=1.40 / pb_ratio=1.30 / aq=4:0.80 / aq-sensitivity=10.00 / aq-factor=1.00:1.00:1.00 / aq2=0 / aq3=0
Default                                  : Да
Forced                                   : Нет
Аудио #1
Идентификатор                            : 2
Формат                                   : AC-3
Формат/Информация                        : Audio Coding 3
Расширение режима                        : CM (complete main)
Параметр Endianness формата              : Big
Идентификатор кодека                     : A_AC3
Продолжительность                        : 1 ч. 45 м.
Вид битрейта                             : Постоянный
Битрейт                                  : 640 Кбит/сек
Каналы                                   : 6 каналов
Расположение каналов                     : Front: L C R, Side: L R, LFE
Частота                                  : 48,0 КГц
Битовая глубина                          : 16 бит
Метод сжатия                             : С потерями
Размер потока                            : 483 Мбайт (6%)
Заголовок                                : Dub (AC3)
Язык                                     : Russian
Default                                  : Да
Forced                                   : Нет
Аудио #2
Идентификатор                            : 3
Формат                                   : DTS
Формат/Информация                        : Digital Theater Systems
Режим                                    : 16
Параметр Endianness формата              : Big
Идентификатор кодека                     : A_DTS
Продолжительность                        : 1 ч. 45 м.
Вид битрейта                             : Постоянный
Битрейт                                  : 1510 Кбит/сек
Каналы                                   : 6 каналов
Расположение каналов                     : Front: L C R, Side: L R, LFE
Частота                                  : 48,0 КГц
Битовая глубина                          : 24 бит
Метод сжатия                             : С потерями
Размер потока                            : 1,11 Гбайт (15%)
Заголовок                                : Dub (DTS)
Язык                                     : Russian
Default                                  : Нет
Forced                                   : Нет
Меню
00:00:00.000                             : en:Chapter 01
00:10:54.680                             : en:Chapter 02
00:17:05.000                             : en:Chapter 03
00:24:21.679                             : en:Chapter 04
00:30:13.640                             : en:Chapter 05
00:40:34.360                             : en:Chapter 06
00:47:51.239                             : en:Chapter 07
00:55:12.640                             : en:Chapter 08
01:03:48.680                             : en:Chapter 09
01:11:21.080                             : en:Chapter 10
01:23:02.400                             : en:Chapter 11
01:30:03.120                             : en:Chapter 12
Релиз: --
[Профиль] [ЛС]
Кто просматривает тему:

Форум Тема Автор Размер
Документальные HD Битва за доставку (сезон 6) / Shipping Wars [2014, Познавательный, History Channel HD, DVB] TorrentFilm 5.16 GB
Фильмы 2009 года Доставь мне удовольствие! / Fais-moi plaisir! (Эмманюэль Муре / Emmanuel Mouret) [2009, Франция, комедия, DVDRip] VO (Михаил Темнов) + Original Fre TorrentFilm 1.72 GB
Документальные HD Жанна Прохоренко. "Оставляю Вам Свою Любовь..." (Ирина Крячко) [2015, Документальный, HDTV 720p] TorrentFilm 1.46 GB
Эпоха СССР И.В. Сталин, Л.М.Каганович (авторы), О. В. Хлевнюк, Р. У. Дэвис, Л. П. Кошелева, Э. А. Рис, Л. А. Рогова (составители) - Сталин и Каганович. Переписка. 1931 - 1936 гг [2001, DjVu] sergej644 17 MB
Зарубежные сериалы Кайф с доставкой / High Maintenance [S01] (2016) HDTVRip 720p | Jaskier Russian Mafia 4.1 GB
Отечественные cериалы Муж с доставкой на дом [01-04 из 04] (2016) SATRip от Files-x Russian Mafia 2.34 GB
Отечественные cериалы Муж с доставкой на дом [01-04 из 04] (2016) SATRip-AVC от Files-x Russian Mafia 1.73 GB
Праздничные концерты Новый год с доставкой на дом (2014.12.31-2015.01.04) SATRip sergej644 2.23 GB
Показать сообщения:    

Текущее время: Сегодня 22:08

Часовой пояс: GMT



Вы не можете начинать темы
Вы не можете отвечать на сообщения
Вы не можете редактировать свои сообщения
Вы не можете удалять свои сообщения
Вы не можете голосовать в опросах
Вы не можете прикреплять файлы к сообщениям
Вы не можете скачивать файлы