Особые отношения / The Special Relationship (Ричард Лонкрэйн / Richard Loncraine) [2010, США, Великобритания, драма, исторический, HDRip] MVO (Amedia Premium HD) + DVO (Elrom) + Original Eng

 
Автор Сообщение

TorrentFilm ®

Пол:

Стаж: 2 года 6 месяцев

Сообщений: 7773



Награды: Нет

Торрент-статистика

Создавать темы 29-Июн-2015 00:06

[Цитировать]

Особые отношения / The Special Relationship
Страна: США, Великобритания
Студия: Rainmark Films, HBO Films, BBC Films
Жанр: драма, исторический
Год выпуска: 2010
Продолжительность: 01:32:04
Перевод 1: Профессиональный (многоголосый закадровый) Amedia Premium HD
Перевод 2: Профессиональный (двухголосый закадровый) Elrom
Cубтитры: нет
Оригинальная аудиодорожка: английский
Режиссер: Ричард Лонкрэйн / Richard Loncraine
В ролях: Майкл Шин, Деннис Куэйд, Хоуп Дэвис, Хелен МакКрори, Марк Базелей, Адам Годли, Марк Риуфол, Мэттью Марш, Нэнси Крэйн
Описание: Тони Блэр (Майкл Шин), энергичный молодой государственный деятель, и Билл Клинтон (Деннис Куэйд), опытный и харизматичный президент, вместе мечтающие о прогрессивном переустройстве мира. Их жены, Хиллари Клинтон и Чери Блэр (Хоуп Дэвис и Хелен Маккрори), дополняют собой уникальную четверку, связанную общей идеологией и личной симпатией. Когда мировые события и переломные моменты в личной жизни колеблют саму основу их взаимоотношений, двое мужчин вынуждены согласиться с эфемерной природой власти, а зачастую и дружбы.
II Сэмпл II IMDB II
Доп. информация:
Первая дорога записана с т/к Amedia Premium HD
Качество видео: HDRip (The.Special.Relationship.2010.720p.BluRay.x264.Rus.Eng-AVCHD)
Формат видео: AVI
Видео: Xvid / 720x304 / 2.35:1 / 23.976fps / Bit rate 2387Kbps / b/p 0.455
Аудио 1: AC3 / 48.0KHz / 2ch. / 192kbps / rus / mvo / Amedia Premium HD
Аудио 2: AC3 / 48.0KHz / 2ch. / 192kbps / rus / dvo / Elrom
Аудио 3: AC3 / 48.0KHz / 6ch. / 448kbps / eng

MediaInfo

Общее
Полное имя : D:\torrent\The.Special.Relationship.2010.HDRip_by_vedigo.avi
Формат : AVI
Формат/Информация : Audio Video Interleave
Профиль формата : OpenDML
Размер файла : 2,09 Гбайт
Продолжительность : 1 ч. 32 м.
Общий поток : 3243 Кбит/сек
Программа кодирования : VirtualDubMod 1.5.10.3 (build 2550/release)
Библиотека кодирования : VirtualDubMod build 2550/release
Видео
Идентификатор : 0
Формат : MPEG-4 Visual
Профиль формата : Advanced Simple@L5
Параметр BVOP формата : 2
Параметр QPel формата : Нет
Параметр GMC формата : Без точки перехода
Параметр матрицы формата : Default (H.263)
Идентификатор кодека : XVID
Идентификатор кодека/Подсказка : XviD
Продолжительность : 1 ч. 32 м.
Битрейт : 2387 Кбит/сек
Ширина : 720 пикселей
Высота : 304 пикселя
Соотношение сторон : 2,35:1
Частота кадров : 23,976 кадра/сек
Цветовое пространство : YUV
Субдискретизация насыщенности : 4:2:0
Битовая глубина : 8 бит
Тип развёртки : Прогрессивная
Метод сжатия : С потерями
Бит/(Пиксели*Кадры) : 0.455
Размер потока : 1,53 Гбайт (74%)
Библиотека кодирования : XviD 65
Аудио #1
Идентификатор : 1
Формат : AC-3
Формат/Информация : Audio Coding 3
Расширение режима : CM (complete main)
Параметр Endianness формата : Big
Идентификатор кодека : 2000
Продолжительность : 1 ч. 32 м.
Вид битрейта : Постоянный
Битрейт : 192 Кбит/сек
Каналы : 2 канала
Расположение каналов : Front: L R
Частота : 48,0 КГц
Метод сжатия : С потерями
Размер потока : 126 Мбайт (6%)
Выравнивание : Разделение по промежуткам
Продолжительность промежутка : 42 мс. (1,00 видеокадр)
Время предзагрузки промежутка : 500 мс.
Аудио #2
Идентификатор : 2
Формат : AC-3
Формат/Информация : Audio Coding 3
Расширение режима : CM (complete main)
Параметр Endianness формата : Big
Идентификатор кодека : 2000
Продолжительность : 1 ч. 32 м.
Вид битрейта : Постоянный
Битрейт : 192 Кбит/сек
Каналы : 2 канала
Расположение каналов : Front: L R
Частота : 48,0 КГц
Метод сжатия : С потерями
Размер потока : 126 Мбайт (6%)
Выравнивание : Разделение по промежуткам
Продолжительность промежутка : 42 мс. (1,00 видеокадр)
Время предзагрузки промежутка : 500 мс.
Аудио #3
Идентификатор : 3
Формат : AC-3
Формат/Информация : Audio Coding 3
Расширение режима : CM (complete main)
Параметр Endianness формата : Big
Идентификатор кодека : 2000
Продолжительность : 1 ч. 32 м.
Вид битрейта : Постоянный
Битрейт : 448 Кбит/сек
Каналы : 6 каналов
Расположение каналов : Front: L C R, Side: L R, LFE
Частота : 48,0 КГц
Метод сжатия : С потерями
Размер потока : 295 Мбайт (14%)
Выравнивание : Разделение по промежуткам
Продолжительность промежутка : 42 мс. (1,00 видеокадр)
Время предзагрузки промежутка : 500 мс.

Скриншот c названием фильма

Скриншоты


[Профиль] [ЛС]

Создавать темы 06-Авг-2015 22:29 (спустя 1 месяц 7 дней)

Топик был перенесен из форума Фильмы до 2014 года в форум Фильмы до 2012 года
sergej644
 

Создавать темы 12-Июн-2016 07:54 (спустя 11 месяцев 13 дней)

Топик был перенесен из форума Фильмы 2011 года в форум Фильмы 2010 года
Russian Mafia
 
Кто просматривает тему:

Показать сообщения:    

Текущее время: Сегодня 16:06

Часовой пояс: GMT



Вы не можете начинать темы
Вы не можете отвечать на сообщения
Вы не можете редактировать свои сообщения
Вы не можете удалять свои сообщения
Вы не можете голосовать в опросах
Вы не можете прикреплять файлы к сообщениям
Вы не можете скачивать файлы