Особо тяжкое преступление / Felony (Мэттью Савилл)[2013,Триллер,BDRip-AVC] VO(datynet)

 
Автор Сообщение

adeei ®

Пол:

Стаж: 1 год 8 месяцев

Сообщений: 63

Откуда: Россия Иваново



Награды: 3 (Подробнее)

Mega Seeder 3 (Количество: 1) Mega Seeder 1 (Количество: 1) Mega Seeder 2 (Количество: 1)
Торрент-статистика

Создавать темы 19-Мар-2015 16:01

[Цитировать]

Особо тяжкое преступление / Felony«Father. Hero. Liar» Год выхода: 2013
Жанр: Триллер
Страна: Австралия, США
Студия: Benaroya Pictures, Blue-Tongue Films, Goalpost Pictures, Screen Australia
Продолжительность: 01:47:08
Перевод: Любительский одноголосый (datynet)-Режиссер: Мэттью Савилл-В ролях: Джай Кортни, Джоэл Эдгертон, Мелисса Джордж, Том Уилкинсон, Сара Робертс, Роузи Лурде, Джордж Баша, Чам Эхелепола, Лиззи Шебеста, Белинда Бромилов, Патрик Томпсон, Брендан Донохью, Алекс Хаддад, Райан Гибсон, Дин Кирвуд, Роб Флэнеган, Ронда Дойл, Гарри Тсенг, Пол Цезар, Гленн Чоу, Джек О’Рурк, Марк Симпсон, Вико Таи-Описание: Хорошо отпраздновав с коллегами полученную награду за поимку крупной банды, офицер полиции садится за руль и в итоге сбивает юного велосипедиста. Он бросается мальчишке на помощь, делает ему искусственное дыхание, а затем дает показания приехавшим на место происшествия полицейским. Однако в последнюю секунду он решает сказать им неправду, что в итоге кардинально меняет и его судьбу, и жизнь этих представителей закона.- -Качество: BDRip-AVC
Видео: MPEG-4 AVC, 2250 Кбит/с, 1024x436, 23.976 кадр/с
Аудио #1: Русский (AC3, 2 ch, 192 Кбит/с) / Любительский одноголосый (datynet)
Аудио #2: Английский (AC3, 6 ch, 448 Кбит/с)-

Скриншоты


О релизе

Рип - Викс
Синхронизация перевода - Викс
Сохранены оригинальные чаптеры как на Blu-Ray

MediaInfo

Общее
Уникальный идентификатор : 236335720134949285283939129310373688465 (0xB1CC9AA1F28C4424BA539775F7A73491)
Полное имя : H:ФильмСделать русский переводГотовые сделаные релизыFelony.2013.x264.BDRip-AVC-MediaClub.mkv
Формат : Matroska
Версия формата : Version 2
Размер файла : 2,16 Гбайт
Продолжительность : 1 ч. 47 м.
Общий поток : 2886 Кбит/сек
Название фильма : Felony (2013) BDRip-AVC =MediaClub= [Викс]
Дата кодирования : UTC 2015-03-18 21:27:06
Программа кодирования : mkvmerge v5.8.0 ('No Sleep / Pillow') built on Sep 2 2012 15:37:04
Библиотека кодирования : libebml v1.2.3 + libmatroska v1.3.0
Видео
Идентификатор : 1
Формат : AVC
Формат/Информация : Advanced Video Codec
Профиль формата : High@L4.1
Параметр CABAC формата : Да
Параметр ReFrames формата : 10 кадров
Идентификатор кодека : V_MPEG4/ISO/AVC
Продолжительность : 1 ч. 47 м.
Битрейт : 2250 Кбит/сек
Ширина : 1024 пикселя
Высота : 436 пикселей
Соотношение сторон : 2,35:1
Режим частоты кадров : Постоянный
Частота кадров : 23,976 кадра/сек
Цветовое пространство : YUV
Субдискретизация насыщенности : 4:2:0
Битовая глубина : 8 бит
Тип развёртки : Прогрессивная
Бит/(Пиксели*Кадры) : 0.210
Размер потока : 1,64 Гбайт (76%)
Библиотека кодирования : x264 core 125 r2208 d9d2288
Настройки программы : cabac=1 / ref=10 / deblock=1:-3:-3 / analyse=0x3:0x133 / me=umh / subme=11 / psy=1 / psy_rd=1.00:0.25 / mixed_ref=1 / me_range=48 / chroma_me=1 / trellis=2 / 8x8dct=1 / cqm=0 / deadzone=21,11 / fast_pskip=0 / chroma_qp_offset=-4 / threads=12 / lookahead_threads=2 / sliced_threads=0 / nr=0 / decimate=1 / interlaced=0 / bluray_compat=0 / constrained_intra=0 / bframes=8 / b_pyramid=2 / b_adapt=2 / b_bias=0 / direct=3 / weightb=1 / open_gop=0 / weightp=2 / keyint=240 / keyint_min=24 / scenecut=40 / intra_refresh=0 / rc=2pass / mbtree=0 / bitrate=2250 / ratetol=1.0 / qcomp=0.60 / qpmin=0 / qpmax=69 / qpstep=4 / cplxblur=20.0 / qblur=0.5 / ip_ratio=1.40 / pb_ratio=1.30 / aq=1:1.00
Язык : English
Default : Да
Forced : Нет
Аудио #1
Идентификатор : 2
Формат : AC-3
Формат/Информация : Audio Coding 3
Расширение режима : CM (complete main)
Параметр Endianness формата : Big
Идентификатор кодека : A_AC3
Продолжительность : 1 ч. 47 м.
Вид битрейта : Постоянный
Битрейт : 192 Кбит/сек
Каналы : 2 канала
Расположение каналов : Front: L R
Частота : 48,0 КГц
Битовая глубина : 16 бит
Метод сжатия : С потерями
Размер потока : 147 Мбайт (7%)
Язык : Russian
Default : Да
Forced : Нет
Аудио #2
Идентификатор : 3
Формат : AC-3
Формат/Информация : Audio Coding 3
Расширение режима : CM (complete main)
Параметр Endianness формата : Big
Идентификатор кодека : A_AC3
Продолжительность : 1 ч. 47 м.
Вид битрейта : Постоянный
Битрейт : 448 Кбит/сек
Каналы : 6 каналов
Расположение каналов : Front: L C R, Side: L R, LFE
Частота : 48,0 КГц
Битовая глубина : 16 бит
Метод сжатия : С потерями
Размер потока : 343 Мбайт (16%)
Язык : English
Default : Нет
Forced : Нет
Меню
00:00:00.000 : :Chapter 01
00:11:06.457 : :Chapter 02
00:19:26.582 : :Chapter 03
00:26:39.014 : :Chapter 04
00:36:45.953 : :Chapter 05
00:46:22.738 : :Chapter 06
00:54:10.956 : :Chapter 07
01:03:46.989 : :Chapter 08
01:11:16.105 : :Chapter 09
01:20:49.344 : :Chapter 10
01:30:32.218 : :Chapter 11
01:42:04.952 : :Chapter 12
01:47:08.547 : :Chapter 13
-
[Профиль] [ЛС]

Создавать темы 06-Авг-2015 22:45 (спустя 4 месяца 18 дней)

Топик был перенесен из форума Фильмы до 2014 года в форум Фильмы 2013 года
sergej644
 
Кто просматривает тему:

Форум Тема Автор Размер
Фильмы (HD DVD, Blu-ray и BDRemux) 6 способов умереть / 6 Ways to Die (2015) BDRemux 1080p | L1, L2 достали все 20.48 GB
Фильмы (HD Rips | 720p, 1080p) 6 способов умереть / 6 Ways to Die (2015) BDRip 1080p | L1, L2 достали все 9.79 GB
Фильмы 2015 года 6 способов умереть / 6 Ways to Sundown (2015) WEB-DLRip | L2 достали все 1.45 GB
Фильмы 2015 года 6 способов умереть / 6 Ways to Sundown (Надим Сума / Nadeem Soumah) [2015, США, боевик, триллер, криминал, WEB-DLRip] DVO (Savetig Studios) TorrentFilm 1.45 GB
Apple, iOS, iPad, iPhone [iPad] Миллион способов потерять голову / A Million Ways to Die in the West (Сет МакФарлейн / Seth MacFarlane ) [2014, США, Комедия, вестерн, HDRip, SD (576p)] DUB + Original sergej644 1.98 GB
Фильмы (DVD 5/9) В зоне особого внимания (Андрей Малюков / Михаил Туманишвили) [1977, СССР, военный, боевик, DVD9, чешское издание] + Sub Cze + Original Rus TorrentFilm 7.81 GB
Фильмы (DVD 5/9) В зоне особого внимания / Ответный ход / Absprung in die Todeszone & Der Gegenzug (Андрей Малюков / Михаил Туманишвили) [1977 / 1981, СССР, Боевик, DVD9] Немецкий TorrentFilm 7.52 GB
Отечественные cериалы Город особого назначения [01-12 из 12] (2015) DVB от Files-x достали все 11.05 GB
Показать сообщения:    

Текущее время: Сегодня 20:33

Часовой пояс: GMT



Вы не можете начинать темы
Вы не можете отвечать на сообщения
Вы не можете редактировать свои сообщения
Вы не можете удалять свои сообщения
Вы не можете голосовать в опросах
Вы не можете прикреплять файлы к сообщениям
Вы не можете скачивать файлы