Особо опасен / Wanted (2008) BDRemux 1080p от NovaLan

 
Автор Сообщение

sergej644 ®

Пол:

Стаж: 4 года 11 месяцев

Сообщений: 6046

Откуда: Soviet Union



Награды: Нет

Торрент-статистика

Создавать темы 22-Янв-2015 01:00

[Цитировать]

Название: Особо опасен
Оригинальное название: Wanted
Год выхода: 2008
Жанр: Боевик, триллер, криминал
Режиссер: Тимур Бекмамбетов
В ролях: Джеймс МакЭвой, Морган Фримен, Анджелина Джоли, Теренс Стэмп, Томас Кречманн, Коммон, Кристен Хагер, Марк Уоррен, Дэвид О`Хара, Константин Хабенский, Крис Прэтт, Лорна Скотт, София Хак
О фильме:
Уэсли Гибсон - зануда и нытик, целыми днями торчащий в офисе. Босс его унижает, подружка ему изменяет. Его жизнь катится в никуда! Обнаружив, что отец, бросивший его в раннем детстве, зверски убит, Уэс оказывается втянут в тайное общество киллеров под названием «Братство». За его обучение берется опытная наставница Фокс, и этот когда-то прикованный к офисному креслу хлюпик развивает молниеносную реакцию и сверхчеловеческую скорость. Однако уже на первом задании Уэсли понимает: есть вещи посложнее, чем вершить судьбы других людей. Это - набраться храбрости и стать хозяином собственной жизни.

Страна: США, Германия, Universal Pictures, Spyglass Entertainment, Relativity Media, Marc Platt Productions, Kickstart Productions, Top Cow Productions, Ringerike Zweite Filmproduktion, Bazelevs Production
Продолжительность: 01:49:53
Перевод: Дублированный / Авторский одноголосый (Андрей Гаврилов) / Любительский одноголосый (den904) / Украинскиий (дублированный)
Кодек: H.264
Качество: Blu-Ray Remux 1080p
Видео: MPEG-4 AVC, 19908 Кбит/с, 1920х1080, 23.976 кадр/с
Звук: Русский (DTS, 6 ch, 755 Кбит/с), (DTS, 6 ch, 1509 Кбит/с), (AC3, 6 ch, 448 Кбит/с), украинскиий (AC3, 6 ch, 384 Кбит/с), английский (DTS-HD MA, 6 ch, 4194 Кбит/с)
Субтитры: Русские, английские
Внимание! Присутствует ненормативная лексика в любительском переводе!

Инфо-файл

Полное имя : E:Раздачи_EWanted.2008.BDRemux.1080p.NovaLan.mkv
Формат : Matroska
Версия формата : Version 4 / Version 2
Размер файла : 20,9 Гбайт
Продолжительность : 1 ч. 50 м.
Режим общего битрейта : Переменный
Общий поток : 27,1 Мбит/сек
Название фильма : Wanted 2008 - NovaLan
Дата кодирования : UTC 2014-07-05 18:31:03
Программа кодирования : mkvmerge v6.9.1 ('Blue Panther') 64bit built on Apr 18 2014 18:23:38
Библиотека кодирования : libebml v1.3.0 + libmatroska v1.4.1
Видео
Идентификатор : 1
Формат : AVC
Формат/Информация : Advanced Video Codec
Профиль формата : High@L4.1
Параметр CABAC формата : Да
Параметр ReFrames формата : 4 кадра
Параметр GOP формата : M=3, N=12
Идентификатор кодека : V_MPEG4/ISO/AVC
Продолжительность : 1 ч. 50 м.
Вид битрейта : Переменный
Битрейт : 21,7 Мбит/сек
Максимальный битрейт : 32,3 Мбит/сек
Ширина : 1920 пикселей
Высота : 1080 пикселей
Соотношение сторон : 16:9
Частота кадров : 23,976 кадра/сек
Цветовое пространство : YUV
Субдискретизация насыщенности : 4:2:0
Битовая глубина : 8 бит
Тип развёртки : Прогрессивная
Бит/(Пиксели*Кадры) : 0.436
Размер потока : 16,7 Гбайт (80%)
Заголовок : Wanted 2008 - NovaLan
Default : Да
Forced : Нет
Основные цвета : BT.709-5, BT.1361, IEC 61966-2-4, SMPTE RP177
Характеристики трансфера : BT.709-5, BT.1361
Коэффициенты матрицы : BT.709-5, BT.1361, IEC 61966-2-4 709, SMPTE RP177
Аудио #1
Идентификатор : 2
Формат : DTS
Формат/Информация : Digital Theater Systems
Идентификатор кодека : A_DTS
Продолжительность : 1 ч. 50 м.
Вид битрейта : Постоянный
Битрейт : 755 Кбит/сек
Каналы : 6 каналов
Расположение каналов : Front: L C R, Side: L R, LFE
Частота : 48,0 КГц
Битовая глубина : 24 бит
Метод сжатия : С потерями
Размер потока : 596 Мбайт (3%)
Язык : Russian
Default : Да
Forced : Нет
Аудио #2
Идентификатор : 3
Формат : DTS
Формат/Информация : Digital Theater Systems
Идентификатор кодека : A_DTS
Продолжительность : 1 ч. 50 м.
Вид битрейта : Постоянный
Битрейт : 1510 Кбит/сек
Каналы : 6 каналов
Расположение каналов : Front: L C R, Side: L R, LFE
Частота : 48,0 КГц
Битовая глубина : 24 бит
Метод сжатия : С потерями
Размер потока : 1,16 Гбайт (6%)
Язык : Russian
Default : Нет
Forced : Нет
Аудио #3
Идентификатор : 4
Формат : AC-3
Формат/Информация : Audio Coding 3
Расширение режима : CM (complete main)
Параметр Endianness формата : Big
Идентификатор кодека : A_AC3
Продолжительность : 1 ч. 50 м.
Вид битрейта : Постоянный
Битрейт : 448 Кбит/сек
Каналы : 6 каналов
Расположение каналов : Front: L C R, Side: L R, LFE
Частота : 48,0 КГц
Битовая глубина : 16 бит
Метод сжатия : С потерями
Размер потока : 354 Мбайт (2%)
Язык : Russian
Default : Нет
Forced : Нет
Аудио #4
Идентификатор : 5
Формат : AC-3
Формат/Информация : Audio Coding 3
Расширение режима : CM (complete main)
Параметр Endianness формата : Big
Идентификатор кодека : A_AC3
Продолжительность : 1 ч. 50 м.
Вид битрейта : Постоянный
Битрейт : 384 Кбит/сек
Каналы : 6 каналов
Расположение каналов : Front: L C R, Side: L R, LFE
Частота : 48,0 КГц
Битовая глубина : 16 бит
Метод сжатия : С потерями
Размер потока : 303 Мбайт (1%)
Язык : Ukrainian
Default : Нет
Forced : Нет
Аудио #5
Идентификатор : 6
Формат : DTS
Формат/Информация : Digital Theater Systems
Профиль формата : MA / Core
Идентификатор кодека : A_DTS
Продолжительность : 1 ч. 50 м.
Вид битрейта : Переменный
Битрейт : 1783 Кбит/сек / 1510 Кбит/сек
Каналы : 6 каналов
Расположение каналов : Front: L C R, Side: L R, LFE
Частота : 48,0 КГц
Битовая глубина : 24 бит
Метод сжатия : Без потерь / Lossy
Язык : English
Default : Нет
Forced : Нет
Текст #1
Идентификатор : 7
Формат : UTF-8
Идентификатор кодека : S_TEXT/UTF8
Идентификатор кодека/Информация : UTF-8 Plain Text
Язык : Russian
Default : Да
Forced : Да
Текст #2
Идентификатор : 8
Формат : UTF-8
Идентификатор кодека : S_TEXT/UTF8
Идентификатор кодека/Информация : UTF-8 Plain Text
Язык : Russian
Default : Нет
Forced : Нет
Текст #3
Идентификатор : 9
Формат : UTF-8
Идентификатор кодека : S_TEXT/UTF8
Идентификатор кодека/Информация : UTF-8 Plain Text
Язык : English
Default : Нет
Forced : Нет
Меню
00:00:00.000 : en:Chapter 1
00:07:01.921 : en:Chapter 2
00:12:58.235 : en:Chapter 3
00:20:58.590 : en:Chapter 4
00:26:25.834 : en:Chapter 5
00:32:11.512 : en:Chapter 6
00:37:30.373 : en:Chapter 7
00:42:04.688 : en:Chapter 8
00:45:22.136 : en:Chapter 9
00:51:52.901 : en:Chapter 10
00:56:23.838 : en:Chapter 11
01:00:58.780 : en:Chapter 12
01:04:00.211 : en:Chapter 13
01:09:42.636 : en:Chapter 14
01:13:32.032 : en:Chapter 15
01:20:23.777 : en:Chapter 16
01:27:10.683 : en:Chapter 17
01:33:24.557 : en:Chapter 18
01:39:26.460 : en:Chapter 19
01:42:22.052 : en:Chapter 20
01:49:52.794 : en:Chapter 21
--
[Профиль] [ЛС]
Кто просматривает тему:

Форум Тема Автор Размер
Фильмы (HD DVD, Blu-ray и BDRemux) 6 способов умереть / 6 Ways to Die (2015) BDRemux 1080p | L1, L2 достали все 20.48 GB
Фильмы (HD Rips | 720p, 1080p) 6 способов умереть / 6 Ways to Die (2015) BDRip 1080p | L1, L2 достали все 9.79 GB
Фильмы 2015 года 6 способов умереть / 6 Ways to Sundown (2015) WEB-DLRip | L2 достали все 1.45 GB
Фильмы 2015 года 6 способов умереть / 6 Ways to Sundown (Надим Сума / Nadeem Soumah) [2015, США, боевик, триллер, криминал, WEB-DLRip] DVO (Savetig Studios) TorrentFilm 1.45 GB
Apple, iOS, iPad, iPhone [iPad] Миллион способов потерять голову / A Million Ways to Die in the West (Сет МакФарлейн / Seth MacFarlane ) [2014, США, Комедия, вестерн, HDRip, SD (576p)] DUB + Original sergej644 1.98 GB
Фильмы (DVD 5/9) В зоне особого внимания (Андрей Малюков / Михаил Туманишвили) [1977, СССР, военный, боевик, DVD9, чешское издание] + Sub Cze + Original Rus TorrentFilm 7.81 GB
Фильмы (DVD 5/9) В зоне особого внимания / Ответный ход / Absprung in die Todeszone & Der Gegenzug (Андрей Малюков / Михаил Туманишвили) [1977 / 1981, СССР, Боевик, DVD9] Немецкий TorrentFilm 7.52 GB
Отечественные cериалы Город особого назначения [01-12 из 12] (2015) DVB от Files-x достали все 11.05 GB
Показать сообщения:    

Текущее время: Сегодня 13:50

Часовой пояс: GMT



Вы не можете начинать темы
Вы не можете отвечать на сообщения
Вы не можете редактировать свои сообщения
Вы не можете удалять свои сообщения
Вы не можете голосовать в опросах
Вы не можете прикреплять файлы к сообщениям
Вы не можете скачивать файлы