Особое задание / Отряд фантастического назначения / Mi ni te gong dui (1983) BDRip 1080p от Freak Chaos | P2, A

 
Автор Сообщение

Russian Mafia ®

Пол:

Стаж: 1 год 8 месяцев

Сообщений: 4252



Награды: 10 (Подробнее)

Top Releaser 4 (Количество: 1) Mega Seeder 3 (Количество: 1) Top Releaser 5 (Количество: 1)
Торрент-статистика

Создавать темы 27-Авг-2016 13:50

[Цитировать]

Информация о фильме
Название: Особое задание / Отряд фантастического назначения
Оригинальное название: Mi ni te gong dui
Год выхода: 1983
Жанр: Боевик, комедия, военный, мистика
Режиссер: Чу Иньпин
В ролях: Джеки Чан, Бриджит Лин, Юй Ван, Юех Сун, Дэвид Тао, Юнг Фэнг, Шиу Бу Лия, Фрэнки Гао
О фильме:
Отряду коммандос, собранному из отпетых мошенников и авантюристов, поставлена боевая задача освободить из плена генералов союзных войск.
Демонстрируя мастерское владение рукопашным боем, отряд продвигается к поставленной цели, не зная, что выжить суждено только непревзойденному Сэми.
Страна: Тайвань, Гонконг
Продолжительность: 01:29:36
Перевод:
1. Профессиональный двухголосый закадровый (Видеофильм)
2. Авторский одноголосый закадровый (Визгунов)
3. Авторский одноголосый закадровый (Сонькин)
Файл
Кодек: AVC, x264
Качество: BDRip 1080p
Видео: 1920x816 (2,35:1), 8888 kbps, 23,976 fps
Звук:
1. AC-3, 192 kbps, 48 KHz, 2 channels
2. AC-3, 192 kbps, 48 KHz, 2 channels
3. AC-3, 192 kbps, 48 KHz, 2 channels

Дополнительная информация об этом фильме

В этот фильм Джеки пригласил актёр Юй Ван, которому Джеки не смог отказать после того, как Ван помог ему решить проблемы с триадой. А проблемы эти ему устроил режиссер Ло Вэй, под чьим руководством молодой звезде не нравилось работать и собрался свалить в набравший обороты Golden Harvest. Но хитрожопый Ло Вэй нашел старенький контракт, подписанный юным Джеки в начале 70-х, где была прописана сумма отступных за тогда еще мало кому известного актёра. В общем конфликт перерос во вполне опасную для жизни ситуацию - Вэй обратился за помощью к триаде, с целью проучить Джеки. Тот был вынужден на какое-то время скрываться на Тайване. В общем участие в этом кино, этом невероятно гавённом трэше - благодарность Джеки, за оказанную помощь в разруливании ситуации с триадой. Кроме фанов Джеки Чана смотреть не рекомендуется

MediaInfo

General
Unique ID : 195352182234960719636918001614742208688 (0x92F77635094D7FBDA82088EC45C1C0B0)
Complete name : X.Особое задание [Mi ni te gong dui, 1983] 1080p.mkv
Format : Matroska
Format version : Version 2
File size : 5.92 GiB
Duration : 1h 29mn
Overall bit rate : 9 464 Kbps
Encoded date : UTC 2016-08-26 19:53:43
Writing application : mkvmerge v5.2.1 ('A Far Off Place') built on Jan 2 2012 23:21:10
Writing library : libebml v1.2.3 + libmatroska v1.3.0
Video
ID : 1
Format : AVC
Format/Info : Advanced Video Codec
Format profile : High@L4.1
Format settings, CABAC : Yes
Format settings, ReFrames : 5 frames
Muxing mode : Header stripping
Codec ID : V_MPEG4/ISO/AVC
Duration : 1h 29mn
Bit rate : 8 888 Kbps
Width : 1 920 pixels
Height : 816 pixels
Display aspect ratio : 2.35:1
Frame rate mode : Constant
Frame rate : 23.976 (24000/1001) fps
Color space : YUV
Chroma subsampling : 4:2:0
Bit depth : 8 bits
Scan type : Progressive
Bits/(Pixel*Frame) : 0.237
Stream size : 5.45 GiB (92%)
Title : Fantasy Mission Force (1983)
Writing library : x264 core 120 r2164 da19765
Encoding settings : cabac=1 / ref=5 / deblock=1:0:0 / analyse=0x3:0x113 / me=umh / subme=8 / psy=1 / psy_rd=1.00:0.00 / mixed_ref=1 / me_range=16 / chroma_me=1 / trellis=1 / 8x8dct=1 / cqm=0 / deadzone=21,11 / fast_pskip=1 / chroma_qp_offset=-2 / threads=3 / sliced_threads=0 / nr=0 / decimate=1 / interlaced=0 / bluray_compat=0 / constrained_intra=0 / bframes=3 / b_pyramid=2 / b_adapt=2 / b_bias=0 / direct=3 / weightb=1 / open_gop=0 / weightp=2 / keyint=240 / keyint_min=23 / scenecut=40 / intra_refresh=0 / rc_lookahead=50 / rc=2pass / mbtree=1 / bitrate=8888 / ratetol=1.0 / qcomp=0.60 / qpmin=0 / qpmax=69 / qpstep=4 / cplxblur=20.0 / qblur=0.5 / ip_ratio=1.40 / aq=1:1.00
Language : English
Default : Yes
Forced : No
Audio #1
ID : 2
Format : AC-3
Format/Info : Audio Coding 3
Mode extension : CM (complete main)
Format settings, Endianness : Big
Muxing mode : Header stripping
Codec ID : A_AC3
Duration : 1h 29mn
Bit rate mode : Constant
Bit rate : 192 Kbps
Channel(s) : 2 channels
Channel positions : Front: L R
Sampling rate : 48.0 KHz
Frame rate : 31.250 fps (1536 spf)
Compression mode : Lossy
Stream size : 123 MiB (2%)
Title : Двухголосый (Видеофильм)
Language : Russian
Default : Yes
Forced : No
Audio #2
ID : 3
Format : AC-3
Format/Info : Audio Coding 3
Mode extension : CM (complete main)
Format settings, Endianness : Big
Muxing mode : Header stripping
Codec ID : A_AC3
Duration : 1h 29mn
Bit rate mode : Constant
Bit rate : 192 Kbps
Channel(s) : 2 channels
Channel positions : Front: L R
Sampling rate : 48.0 KHz
Frame rate : 31.250 fps (1536 spf)
Compression mode : Lossy
Stream size : 123 MiB (2%)
Title : Визгунов
Language : Russian
Default : No
Forced : No
Audio #3
ID : 4
Format : AC-3
Format/Info : Audio Coding 3
Mode extension : CM (complete main)
Format settings, Endianness : Big
Muxing mode : Header stripping
Codec ID : A_AC3
Duration : 1h 29mn
Bit rate mode : Constant
Bit rate : 192 Kbps
Channel(s) : 2 channels
Channel positions : Front: L R
Sampling rate : 48.0 KHz
Frame rate : 31.250 fps (1536 spf)
Compression mode : Lossy
Stream size : 123 MiB (2%)
Title : Сонькин
Language : Russian
Default : No
Forced : No

Скриншоты

[Профиль] [ЛС]
Кто просматривает тему:

Форум Тема Автор Размер
Фильмы (HD DVD, Blu-ray и BDRemux) 6 способов умереть / 6 Ways to Die (2015) BDRemux 1080p | L1, L2 достали все 20.48 GB
Фильмы (HD Rips | 720p, 1080p) 6 способов умереть / 6 Ways to Die (2015) BDRip 1080p | L1, L2 достали все 9.79 GB
Фильмы 2015 года 6 способов умереть / 6 Ways to Sundown (2015) WEB-DLRip | L2 достали все 1.45 GB
Фильмы 2015 года 6 способов умереть / 6 Ways to Sundown (Надим Сума / Nadeem Soumah) [2015, США, боевик, триллер, криминал, WEB-DLRip] DVO (Savetig Studios) TorrentFilm 1.45 GB
Apple, iOS, iPad, iPhone [iPad] Миллион способов потерять голову / A Million Ways to Die in the West (Сет МакФарлейн / Seth MacFarlane ) [2014, США, Комедия, вестерн, HDRip, SD (576p)] DUB + Original sergej644 1.98 GB
Фильмы (DVD 5/9) В зоне особого внимания (Андрей Малюков / Михаил Туманишвили) [1977, СССР, военный, боевик, DVD9, чешское издание] + Sub Cze + Original Rus TorrentFilm 7.81 GB
Фильмы (DVD 5/9) В зоне особого внимания / Ответный ход / Absprung in die Todeszone & Der Gegenzug (Андрей Малюков / Михаил Туманишвили) [1977 / 1981, СССР, Боевик, DVD9] Немецкий TorrentFilm 7.52 GB
Отечественные cериалы Город особого назначения [01-12 из 12] (2015) DVB от Files-x достали все 11.05 GB
Показать сообщения:    

Текущее время: Сегодня 22:42

Часовой пояс: GMT



Вы не можете начинать темы
Вы не можете отвечать на сообщения
Вы не можете редактировать свои сообщения
Вы не можете удалять свои сообщения
Вы не можете голосовать в опросах
Вы не можете прикреплять файлы к сообщениям
Вы не можете скачивать файлы