Основной элемент (20 выпусков) [2014, Документальный, HDTVRip 720p]

 
Автор Сообщение

TorrentFilm ®

Пол:

Стаж: 2 года

Сообщений: 7741



Награды: Нет

Торрент-статистика

Создавать темы 17-Дек-2014 02:15

[Цитировать]

Основной элемент (20 выпусков)
Год выпуска: 2014
Страна: Россия
Жанр: Документальный
Продолжительность: 00:26:00 серия
Перевод: Не требуется
Описание: Страх в гены человека заложила эволюция. Что бывает, когда страх выходит из-под контроля? Лень управляет нами или все-таки мы управляем ленью? Почему одни вещи кажутся нам красивыми, а другие нет? Вся наша жизнь основана на отношениях подчинения и доминирования. Может ли это стать предметом рассмотрения науки? Есть ли среди нас прирожденные боссы и рабы? Ответы на эти вопросы - в новом цикле о мире научных открытий и технологий.
Основной элемент. Выжить в океане
Основной элемент. Еда
Основной элемент. Истории из подземелия
Основной элемент. Кинореволюция обёмный мир
Основной элемент. Придвидеть случайность
Основной элемент. Теория эаблуждений
Основной элемент. Шестое чувство
Основной элемент. Эволюция
Основной элемент. Цветы зла
Основной элемент. Крутые стволы
Основной элемент. Цифровая эпидемия
Основной элемент. Гормон риска
Основной элемент. Фабрика счастья
Основной элемент. Как понять язык животных
перекачайте торрент файл добавлена серия
Основной элемент. Холодное оружие
Основной элемент. Мобильный мир
Основной элемент. Лавины
Основной элемент. Как мы видим цвет
Основной элемент. Гипноз развенчание мифов
Основной элемент. Вегетарианство - наше будущее
Тип релиза: HDTVRip 720p
Контейнер: MKV
Видео: MPEG-4 AVC , 1280x720 (16:9), 25.000 fps, 2 300 Kbps
Аудио: AC3, 2 ch, 48 kHz, 192 kbps

MediaInfo

GeneralUnique ID : 224483931670455267085561013853818038817 (0xA8E20858B8D732699F330CAB8AF9AA21)Complete name : M:\ДИСК-1\Основной элемент\Основной элемент. Выжить в океане.mkvFormat : MatroskaFormat version : Version 2File size : 463 MiBDuration : 25mn 56sOverall bit rate : 2 495 KbpsEncoded date : UTC 2014-09-23 08:38:06Writing application : mkvmerge v5.5.0 ('Healer') built on Apr 24 2012 23:47:03Writing library : libebml v1.2.3 + libmatroska v1.3.0
VideoID : 1Format : AVCFormat/Info : Advanced Video CodecFormat profile : High@L4.1Format settings, CABAC : YesFormat settings, ReFrames : 8 framesCodec ID : V_MPEG4/ISO/AVCDuration : 25mn 56sBit rate : 2 300 KbpsWidth : 1 280 pixelsHeight : 720 pixelsDisplay aspect ratio : 16:9Frame rate mode : ConstantFrame rate : 25.000 fpsColor space : YUVChroma subsampling : 4:2:0Bit depth : 8 bitsScan type : ProgressiveBits/(Pixel*Frame) : 0.100Stream size : 418 MiB (90%)Writing library : x264 core 124 r2197 69a0443Encoding settings : cabac=1 / ref=8 / deblock=1:-1:-1 / analyse=0x3:0x133 / me=umh / subme=7 / psy=1 / psy_rd=1.00:0.10 / mixed_ref=1 / me_range=16 / chroma_me=1 / trellis=2 / 8x8dct=1 / cqm=0 / deadzone=21,11 / fast_pskip=0 / chroma_qp_offset=-3 / threads=6 / sliced_threads=0 / nr=0 / decimate=1 / interlaced=0 / bluray_compat=0 / constrained_intra=0 / bframes=3 / b_pyramid=2 / b_adapt=2 / b_bias=0 / direct=3 / weightb=1 / open_gop=0 / weightp=2 / keyint=250 / keyint_min=25 / scenecut=40 / intra_refresh=0 / rc_lookahead=50 / rc=2pass / mbtree=1 / bitrate=2300 / ratetol=1.0 / qcomp=0.60 / qpmin=0 / qpmax=69 / qpstep=4 / cplxblur=20.0 / qblur=0.5 / ip_ratio=1.40 / aq=1:1.00Default : YesForced : No
AudioID : 2Format : AC-3Format/Info : Audio Coding 3Mode extension : CM (complete main)Format settings, Endianness : BigCodec ID : A_AC3Duration : 25mn 56sBit rate mode : ConstantBit rate : 192 KbpsChannel(s) : 2 channelsChannel positions : Front: L RSampling rate : 48.0 KHzBit depth : 16 bitsCompression mode : LossyStream size : 35.6 MiB (8%)Default : YesForced : No

Скриншоты

[Профиль] [ЛС]
Кто просматривает тему:

Форум Тема Автор Размер
Компьютерная литература (Программирование) Developmentor - Бошемин Б. - Основы ADO.NET [2003, DjVu, RUS] TorrentFilm 21 MB
Adobe Photoshop Алексей Захаренко - Основы Photoshop с нуля от А до Я или Освой Photoshop за 1 день - 1 часть. Обучающий видеокурс (2012) PCRec sergej644 4.98 GB
Фантастика, фэнтези Джон Ширли - Гримм. Ледяное прикосновение (2016) FB2 достали все 1 MB
Научная и техническая литература Дмитрий Миронов - Большая энциклопедия цифровой фотографии (Фото на 100 %) [Основы цифровой фотографии, Энциклопедии, 2012, PDF] Garik014 115 MB
Консультант Плюс Консультант Плюс. Региональная сборка от 01.01.2015 на основе ТМ VR401271 (FIX) и НЕоригинальных криптованных DIN (2015) [Rus] Ruvest 114.36 GB
Разная литература Крейс В. - Кирпичная кладка. Основы (2015) FB2, RTF достали все 14 MB
Научная и техническая литература Курякова Н.Б., Шептуха Т.С. - Основы проектирования скатных крыш и мансард (2016) PDF достали все 45 MB
Разное Медведев А.Н. - Скоростной бой. Боевые связки без оружия, основанные на ударах (1997) DjVu sergej644 18 MB
Показать сообщения:    

Текущее время: Сегодня 12:50

Часовой пояс: GMT



Вы не можете начинать темы
Вы не можете отвечать на сообщения
Вы не можете редактировать свои сообщения
Вы не можете удалять свои сообщения
Вы не можете голосовать в опросах
Вы не можете прикреплять файлы к сообщениям
Вы не можете скачивать файлы