Основной инстинкт / Basic Instinct (1992) BDRip 720p

 
Автор Сообщение

Russian Mafia ®

Пол:

Стаж: 1 год 8 месяцев

Сообщений: 4246



Награды: 10 (Подробнее)

Mega Seeder 5 (Количество: 1) Mega Seeder 1 (Количество: 1) Mega Seeder 4 (Количество: 1)
Торрент-статистика

Создавать темы 25-Сен-2015 20:18

[Цитировать]

Основной инстинкт / Basic Instinct
«Flesh seduces. Passion kills»
Русское название: Основной инстинкт
Оригинальное название: Basic Instinct
Год выпуска: 1992
Жанр: триллер, детектив
Выпущено: США, Франция
Режиссер: Пол Верховен
В ролях: Майкл Дуглас , Шэрон Стоун , Джордж Дзундза , Джинн Трипплхорн , Дэнис Арндт , Лейлани Сарелл , Брюс А. Янг , Челси Росс , Дороти Мэлоун , Уэйн Найт , Дэниэл фон Барген , Стивен Тоболовски
Перевод: Профессиональный многоголосый, Профессиональный (двухголосый), Авторский (одноголосый)

Сюжет фильма:
Детектив Ник Каррен ведет расследование по делу об извращенном убийстве на сексуальной почве. Подозрение падает на подругу убитого Кэтрин - писательницу, автора шокирующих романов, которая в своей последней книге подробно описала абсолютно аналогичное преступление.
Но обворожительная, неимоверно сексуальная писательница, обладает удивительной способностью манипулировать мужчинами, пробудив в них один из самых основных инстинктов.

Знаете ли вы, что...

Для того чтобы получить рейтинг «R», Полу Верховену пришлось перемонтировать картину четырнадцать раз.
Джо Эстерхаз (сценарист) и Ирвин Уинклер (продюсер) покинули проект из-за творческих разногласий с Полом Верховеном. После ухода Эстерхаса Пол нанял Гари Голдмана, для того чтобы переписать некоторые сцены, которые, в основном, касались персонажа Майкла Дугласа. Однако вскоре Верховен понял, что данные изменения идут вразрез с остальным сценарием, и он публично извинился перед Эстерхасом. Перемирие между режиссером и сценаристом длилось не долго, т. к. впоследствии Джо решил внести изменения в сценарий, для того чтобы сгладить острые углы по отношению к сексуальным меньшинствам. Однако Верховен был категорически против.
Первоначально на роль Кэтрин рассматривались Ким Бейсингер, Грета Скакки и Мишель Пфайффер.
Эмма Томпcон, Джулия Робертс и Мэг Райан отклонили предложение сыграть главную роль в фильме.
Мэриэл Хемингуэй и Келли МакГиллис проходили пробы на главную роль в фильме.
Персонаж Майкла Дугласа смотрит «Восставший из ада 2» (1988).
Платья, которые носит Шэрон Стоун, были спроектированы таким образом, чтобы повторять платья Ким Новак в «Головокружении» (1958).
Майкл Дуглас самостоятельно исполнил почти все автомобильные трюки.
Декорации «Johnny Boz Club» были построены на студии «Warner Bros Studios».
Джо Эстерхаз получил за сценарий неслыханный по тем временам гонорар - 3 миллиона долларов.
Пол Верховен рассматривал кандидатуру Питер Уэллера на роль Ника Каррана.
Перед началом съёмок Пол Верховен заявил, что данный фильм станет первой мэйнстримовой голливудской картиной, где будет показан мужской половой член в возбужденном состоянии. Однако его пожелание так и не воплотилось в жизнь.
Каждый день 50 полицейских охраняли место съёмок, сдерживав активистов, протестовавших за права геев и лесбиянок.
Пол Верховен предложил Шэрон Стоун главную роль после их совместной работы над «Вспомнить всё» (1990).
Брук Шилдс отклонила предложение сыграть Рокси.
Когда фильм вышел на экраны, многие зрители терялись в догадках, кто же был настоящим убийцей. Ситуацию разрешили режиссер и актеры, которые в своих интервью рассказали о том, кто стоит за всеми убийствами, и где искать подсказки в фильме.
По словам Шэрон Стоун, Пол Верховен попросил её снять нижнее белье при съёмках сцены допроса, т. к. оно было слишком ярким и было заметно при съёмках. Шэрон согласилась, но она не знала, что режиссер выберет особый план камеры (чтобы были видны её гениталии). То, как была снята данная сцена, Шэрон увидела только при просмотре уже готового фильма. При следующей встрече Шэрон ударила Пола по лицу. Она была особенно зла на него за то, что он не обсудил с ней включение эпизода в окончательный монтаж картины. Однако Стоун признает, что данная сцена важна для сюжета и соответствует её персонажу.
Компания, производящая виски «Джек Дэниэлс», заплатила более 1 млн долларов за сцену, в которой Ник предлагает Кэтрин выпить виски «Джек Дэниэлс». На самом деле (по книге) Кэтрин, увидев у Ника бутылку с этим виски спрашивает, нет ли чего-нибудь другого. После этого рекламного хода продажи «Джек Дениэлс» выросли в несколько раз.
Шэрон Стоун оказалась единственной из четырнадцати актрис, которая согласилась на роль Кэтрин Трэмелл. До неё на роль также пробовались: Ким Бейсингер, Джулия Робертс, Мег Райан, Мишель Пфайффер и другие.
На роль Ника Каррэна Верховен рассматривал также кандидатуру Питера Уэллера, с которым он работал на съёмках фильма «Робокоп» (1987).
Фильм вызвал резко негативную реакцию среди ЛГБТ-сообщества США в связи с тем, что картина содержит в себе отрицательные стереотипы о лесбиянках, которые изображаются в фильме хладнокровными убийцами, и обвинили создателей фильма в гомофобии. Активисты ЛГБТ-движения и им сочувствующие пытались всячески воспрепятствовать съёмочному процессу, а затем старались сорвать премьерные показы «Основного инстинкта».
Качество: BDRip 720p (исходник Blu-ray)
Формат: AVC (библиотека кодирования x.264)
Контейнер (Расширение): MKV
Видео: 1280x546 (2.35:1), 3672 Кбит/сек, 23,976 кадр/сек, 0,219 Бит/[Пиксели*Кадры]
Аудио №1: русский / AC3 / 5.1 / 48 kHz / 448 kbps / |Профессиональный двухголосый, CP-DIGITAL|
Аудио №2: русский / AC3 / 2.0 / 48 kHz / 192 kbps / |Профессиональный многоголосый, ОРТ|
Аудио №3: русский / AC3 / 2.0 / 48 kHz / 192 kbps / |Профессиональный многоголосый, НТВ|
Аудио №4: русский / AC3 / 2.0 / 48 kHz / 192 kbps / |Авторский, Горчаков|
Аудио №5: русский / AC3 / 5.1 / 48 kHz / 448 kbps / |Авторский, Гаврилов|
Аудио №6: русский / AC3 / 2.0 / 44 kHz / 224 kbps / |Авторский, Живов|
Аудио №7: русский / AC3 / 2.0 / 48 kHz / 192 kbps / |Авторский, Либергал|
Аудио №8: русский / AC3 / 5.1 / 48 kHz / 448 kbps / |Авторский, Матвеев (Doctor Joker)|
Аудио №9: английский / AC3 / 5.1 / 48 kHz / 640 kbps /
Субтитры: русские (Full), английские (Full)
Навигация по главам(Чаптеры): есть
Продолжительность: 02:08:15

MediaInfo

Format : Matroska
Format version : Version 2
File size : 6.08 GiB
Duration : 2h 8mn
Overall bit rate : 6 784 Kbps
Movie name : Osnovnoj instinkt.(1992).BDRip.720p.[denis100]
Encoded date : UTC 2015-03-09 11:28:41
Writing application : mkvmerge v5.8.0 ('No Sleep / Pillow') built on Sep 2 2012 15:37:04
Writing library : libebml v1.2.3 + libmatroska v1.3.0
Video
ID : 1
Format : AVC
Format/Info : Advanced Video Codec
Format profile : High@L4.1
Format settings, CABAC : Yes
Format settings, ReFrames : 11 frames
Codec ID : V_MPEG4/ISO/AVC
Duration : 2h 8mn
Bit rate : 3 673 Kbps
Width : 1 280 pixels
Height : 546 pixels
Display aspect ratio : 2.35:1
Frame rate : 23.976 fps
Color space : YUV
Chroma subsampling : 4:2:0
Bit depth : 8 bits
Scan type : Progressive
Bits/(Pixel*Frame) : 0.219
Stream size : 3.29 GiB (54%)
Title : Osnovnoj instinkt.(1992).BDRip.720p.[denis100]
Writing library : x264 core 144 r2525 40bb568
Encoding settings : cabac=1 / ref=11 / deblock=1:-3:-3 / analyse=0x3:0x133 / me=umh / subme=11 / psy=1 / psy_rd=1.00:0.00 / mixed_ref=1 / me_range=32 / chroma_me=1 / trellis=2 / 8x8dct=1 / cqm=0 / deadzone=21,11 / fast_pskip=0 / chroma_qp_offset=-2 / threads=6 / lookahead_threads=1 / sliced_threads=0 / nr=0 / decimate=1 / interlaced=0 / bluray_compat=0 / constrained_intra=0 / bframes=14 / b_pyramid=2 / b_adapt=2 / b_bias=0 / direct=3 / weightb=1 / open_gop=0 / weightp=2 / keyint=240 / keyint_min=23 / scenecut=40 / intra_refresh=0 / rc=crf / mbtree=0 / crf=16.9 / qcomp=0.60 / qpmin=0 / qpmax=69 / qpstep=4 / ip_ratio=1.40 / pb_ratio=1.30 / aq=1:1.00
Language : English
Default : Yes
Forced : No
Audio #1
ID : 2
Format : AC-3
Format/Info : Audio Coding 3
Mode extension : CM (complete main)
Codec ID : A_AC3
Duration : 2h 8mn
Bit rate mode : Constant
Bit rate : 448 Kbps
Channel(s) : 6 channels
Channel positions : Front: L C R, Side: L R, LFE
Sampling rate : 48.0 KHz
Bit depth : 16 bits
Compression mode : Lossy
Stream size : 411 MiB (7%)
Title : Профессиональный двухголосый, CP-DIGITAL
Language : Russian
Default : Yes
Forced : No
Audio #2
ID : 3
Format : AC-3
Format/Info : Audio Coding 3
Mode extension : CM (complete main)
Codec ID : A_AC3
Duration : 2h 8mn
Bit rate mode : Constant
Bit rate : 192 Kbps
Channel(s) : 2 channels
Channel positions : Front: L R
Sampling rate : 48.0 KHz
Bit depth : 16 bits
Compression mode : Lossy
Stream size : 176 MiB (3%)
Title : Профессиональный многоголосый, ОРТ
Language : Russian
Default : No
Forced : No
Audio #3
ID : 4
Format : AC-3
Format/Info : Audio Coding 3
Mode extension : CM (complete main)
Codec ID : A_AC3
Duration : 2h 8mn
Bit rate mode : Constant
Bit rate : 192 Kbps
Channel(s) : 2 channels
Channel positions : Front: L R
Sampling rate : 48.0 KHz
Bit depth : 16 bits
Compression mode : Lossy
Stream size : 176 MiB (3%)
Title : Профессиональный многоголосый, НТВ
Language : Russian
Default : No
Forced : No
Audio #4
ID : 5
Format : AC-3
Format/Info : Audio Coding 3
Mode extension : CM (complete main)
Codec ID : A_AC3
Duration : 2h 8mn
Bit rate mode : Constant
Bit rate : 192 Kbps
Channel(s) : 2 channels
Channel positions : Front: L R
Sampling rate : 48.0 KHz
Bit depth : 16 bits
Compression mode : Lossy
Stream size : 176 MiB (3%)
Title : Авторский, Горчаков
Language : Russian
Default : No
Forced : No
Audio #5
ID : 6
Format : AC-3
Format/Info : Audio Coding 3
Mode extension : CM (complete main)
Codec ID : A_AC3
Duration : 2h 8mn
Bit rate mode : Constant
Bit rate : 448 Kbps
Channel(s) : 6 channels
Channel positions : Front: L C R, Side: L R, LFE
Sampling rate : 48.0 KHz
Bit depth : 16 bits
Compression mode : Lossy
Stream size : 411 MiB (7%)
Title : Авторский, Гаврилов
Language : Russian
Default : No
Forced : No
Audio #6
ID : 7
Format : AC-3
Format/Info : Audio Coding 3
Mode extension : CM (complete main)
Codec ID : A_AC3
Duration : 2h 8mn
Bit rate mode : Constant
Bit rate : 224 Kbps
Channel(s) : 2 channels
Channel positions : Front: L R
Sampling rate : 44.1 KHz
Bit depth : 16 bits
Compression mode : Lossy
Stream size : 205 MiB (3%)
Title : Авторский, Живов
Language : Russian
Default : No
Forced : No
Audio #7
ID : 8
Format : AC-3
Format/Info : Audio Coding 3
Mode extension : CM (complete main)
Codec ID : A_AC3
Duration : 2h 8mn
Bit rate mode : Constant
Bit rate : 192 Kbps
Channel(s) : 2 channels
Channel positions : Front: L R
Sampling rate : 48.0 KHz
Bit depth : 16 bits
Compression mode : Lossy
Stream size : 176 MiB (3%)
Title : Авторский, Либергал
Language : Russian
Default : No
Forced : No
Audio #8
ID : 9
Format : AC-3
Format/Info : Audio Coding 3
Mode extension : CM (complete main)
Codec ID : A_AC3
Duration : 2h 8mn
Bit rate mode : Constant
Bit rate : 448 Kbps
Channel(s) : 6 channels
Channel positions : Front: L C R, Side: L R, LFE
Sampling rate : 48.0 KHz
Bit depth : 16 bits
Compression mode : Lossy
Stream size : 411 MiB (7%)
Title : Авторский, Матвеев (Doctor Joker)
Language : Russian
Default : No
Forced : No
Audio #9
ID : 10
Format : AC-3
Format/Info : Audio Coding 3
Mode extension : CM (complete main)
Codec ID : A_AC3
Duration : 2h 8mn
Bit rate mode : Constant
Bit rate : 640 Kbps
Channel(s) : 6 channels
Channel positions : Front: L C R, Side: L R, LFE
Sampling rate : 48.0 KHz
Bit depth : 16 bits
Compression mode : Lossy
Stream size : 587 MiB (9%)
Title : English
Language : English
Default : No
Forced : No
Text #1
ID : 11
Format : UTF-8
Codec ID : S_TEXT/UTF8
Codec ID/Info : UTF-8 Plain Text
Title : Full
Language : Russian
Default : No
Forced : No
Text #2
ID : 12
Format : UTF-8
Codec ID : S_TEXT/UTF8
Codec ID/Info : UTF-8 Plain Text
Title : Full
Language : English
Default : No
Forced : No
Menu
00:00:00.000 : en:Sex Crimes
00:07:20.857 : en:An Amateur
00:15:36.810 : en:Written Alabi
00:21:01.009 : en:Nothing to Hide
00:29:34.773 : en:Innocent Test
00:35:33.005 : en:Internal Affairs
00:40:29.176 : en:Reckless Pursuit
00:46:48.138 : en:Rough Edges
01:02:07.515 : en:Playing Games
01:11:34.415 : en:Pretty Good Beginning
01:20:44.881 : en:Deadly Chase
01:28:39.772 : en:Mind Manipulation
01:34:23.074 : en:Personal Files
01:41:37.299 : en:Researching Records
01:50:21.448 : en:Killer Story
01:58:32.605 : en:Happily Ever After

x264

x264 [info]: frame I:1173 Avg QP:14.17 size: 79981
x264 [info]: frame P:37476 Avg QP:15.30 size: 39496
x264 [info]: frame B:145856 Avg QP:17.10 size: 14303

Скриншоты

[Профиль] [ЛС]
Кто просматривает тему:

Форум Тема Автор Размер
Компьютерная литература (Программирование) Developmentor - Бошемин Б. - Основы ADO.NET [2003, DjVu, RUS] TorrentFilm 21 MB
Adobe Photoshop Алексей Захаренко - Основы Photoshop с нуля от А до Я или Освой Photoshop за 1 день - 1 часть. Обучающий видеокурс (2012) PCRec sergej644 4.98 GB
Фантастика, фэнтези Джон Ширли - Гримм. Ледяное прикосновение (2016) FB2 достали все 1 MB
Научная и техническая литература Дмитрий Миронов - Большая энциклопедия цифровой фотографии (Фото на 100 %) [Основы цифровой фотографии, Энциклопедии, 2012, PDF] Garik014 115 MB
Консультант Плюс Консультант Плюс. Региональная сборка от 01.01.2015 на основе ТМ VR401271 (FIX) и НЕоригинальных криптованных DIN (2015) [Rus] Ruvest 114.36 GB
Разная литература Крейс В. - Кирпичная кладка. Основы (2015) FB2, RTF достали все 14 MB
Разное Медведев А.Н. - Скоростной бой. Боевые связки без оружия, основанные на ударах (1997) DjVu sergej644 18 MB
Разная литература Н. И. Медведева (сост.) | Основы пчеловодства (2015) [FB2, EPUB] достали все 6 MB
Показать сообщения:    

Текущее время: Сегодня 22:35

Часовой пояс: GMT



Вы не можете начинать темы
Вы не можете отвечать на сообщения
Вы не можете редактировать свои сообщения
Вы не можете удалять свои сообщения
Вы не можете голосовать в опросах
Вы не можете прикреплять файлы к сообщениям
Вы не можете скачивать файлы