Осколки памяти / Les fragments d\'Antonin (Габриель Ле Бомен / Gabriel Le Bomin) [2006, Франция, военная драма, DVB] Original (Fre) + Sub (rus)

 
Автор Сообщение

TorrentFilm ®

Пол:

Стаж: 2 года

Сообщений: 7741



Награды: Нет

Торрент-статистика

Создавать темы 19-Дек-2014 02:00

[Цитировать]

Осколки памяти
Les fragments d'Antonin- Страна: Франция
Жанр: военная драма
Год выпуска: 2006
Продолжительность: 01:25:11
Перевод: Субтитры (перевод А.Вижье, Éclair Group/TELETOTA)
Cубтитры: русские
Оригинальная аудиодорожка: французский
Режиссер: Габриель Ле Бомен / Gabriel Le BominВ ролях: Грегори Деранжер / Grégori Derangère (Antonin Verset), Анук Гринбер / Anouk Grinberg (Madeleine Oberstein), Орельен Рекуан / Aurélien Recoing (Professeur Labrousse), Нильс Ареструп / Niels Arestrup (Professeur Lantier), Янн Коллетт / Yann Collette (Capitaine Orlac), Паскаль Демолон / Pascal Demolon (Lieutenant Ferrou), Николя Жиро / Nicolas Giraud (Soldat Brunnel), Микаэль Абитбуль / Michaël Abiteboul (Masson), Сириль Тувенен / Cyrille Thouvenin (Stan)
Описание: Первая мировая война оставила после себя не только горе по убитым и страдания раненых, она привела к серьезным психическим расстройствам у многих ее участников, как, например, у Антонена Версе, который теперь не в состоянии выразить себя в словах и пугается навязчивых образов…
Доп. информация: TV5MONDE DVB-S
Награды: номинация на "Сезар" 2007 за лучший режиссерский дебют; номинация на приз Луи Деллюка за лучший режиссерский дебют; приз зрительских симпатий Festival International Musique et Cinéma 2006.

Качество видео: DVB
Формат видео: MKV
Видео: MPEG Video 2, 704x576@1024x576 (16:9), 25 fps, ~3846 kbps avg, 0.379 bit/pixel
Аудио: Французский (MPEG Audio 2, 2 ch, 48 kHz, ~192.00 kbps avg)
Формат субтитров: hardsub (неотключаемые)

MediaInfo

ОбщееУникальный идентификатор : 182730128140659638609031255186148114105 (0x89788AE4BD34147095980CF776633EB9)Полное имя : E:\My Torrents 2\[apreder]Les_fragments_d'Antonin(2006)DVB.mkvФормат : MatroskaВерсия формата : Version 2Размер файла : 2,45 ГбайтПродолжительность : 1 ч. 25 м.Режим общего битрейта : ПеременныйОбщий поток : 4120 Кбит/секДата кодирования : UTC 2014-11-15 19:13:22Программа кодирования : mkvmerge v7.3.0 ('Nouages') 64bit built on Oct 22 2014 18:53:34Библиотека кодирования : libebml v1.3.0 + libmatroska v1.4.1
ВидеоИдентификатор : 1Формат : MPEG VideoВерсия формата : Version 2Профиль формата : Main@MainПараметр BVOP формата : НетПараметр матрицы формата : ВыборочнаяFormat_Settings_PictureStructure : FrameИдентификатор кодека : V_MPEG2Идентификатор кодека/Информация : MPEG 1 or 2 VideoПродолжительность : 1 ч. 25 м.Вид битрейта : ПеременныйБитрейт : 3846 Кбит/секМаксимальный битрейт : 7009 Кбит/секШирина : 704 пикселяВысота : 576 пикселейСоотношение сторон : 16:9Режим частоты кадров : ПостоянныйЧастота кадров : 25,000 кадров/секСтандарт вещания : PALЦветовое пространство : YUVСубдискретизация насыщенности : 4:2:0Битовая глубина : 8 битТип развёртки : ЧересстрочнаяПорядок развёртки : Верхнее поле первоеМетод сжатия : С потерямиБит/(Пиксели*Кадры) : 0.379Временной код первого кадра : 00:00:00:00Оригинал временного кода : Group of pictures headerРазмер потока : 2,29 Гбайт (93%)Default : ДаForced : Нет
АудиоИдентификатор : 2Формат : MPEG AudioВерсия формата : Version 1Профиль формата : Layer 2Идентификатор кодека : A_MPEG/L2Идентификатор кодека/Подсказка : MP2Продолжительность : 1 ч. 25 м.Вид битрейта : ПостоянныйБитрейт : 192 Кбит/секКаналы : 2 каналаЧастота : 48,0 КГцМетод сжатия : С потерямиРазмер потока : 117 Мбайт (5%)Язык : FrenchDefault : ДаForced : Нет

Скриншот c названием фильма

Скриншоты


Резервные скриншоты


-[1'914]
[Профиль] [ЛС]

Создавать темы 06-Авг-2015 22:54 (спустя 7 месяцев 18 дней)

Топик был перенесен из форума Фильмы до 2014 года в форум Фильмы до 2012 года
sergej644
 
Показать сообщения:    

Текущее время: Сегодня 14:25

Часовой пояс: GMT



Вы не можете начинать темы
Вы не можете отвечать на сообщения
Вы не можете редактировать свои сообщения
Вы не можете удалять свои сообщения
Вы не можете голосовать в опросах
Вы не можете прикреплять файлы к сообщениям
Вы не можете скачивать файлы