Оскверненный / Desecrated (Роб Гарсиа / Rob Garcia) [2015, США, триллер, WEBRip] DVO (DeadSno & den904)

 
Автор Сообщение

TorrentFilm ®

Пол:

Стаж: 2 года

Сообщений: 7741



Награды: Нет

Торрент-статистика

Создавать темы 16-Мар-2015 00:02

[Цитировать]

Оскверненный / Desecrated
Страна: США
Жанр: триллер
Год выпуска: 2015
Продолжительность: 01:22:07-Перевод: Любительский (двухголосный закадровый) DeadSno & den904
Cубтитры: нет
Режиссер: Роб Гарсиа / Rob Garcia-В ролях: Хэйли Дафф, Вилмер Калдерон, Адам Дэниэлс, Гиб Жерард, Майкл Айронсайд, Пол Джеймс, Гонсало Менендез, Хизер Соссамэн-Описание: Дочка богатенького папашки решает провести веселые выходные на ранчо в изолированной местности. Но вскоре они обнаруживают, что за личиной доброго и услужливого сторожа, скрывается кровожадный и расчетливый зверь...-Доп. информация: Перевод: Северный
Озвучка: 2D-Сэмпл: http://sendfile.su/1096325

Качество видео: WEBRip
Формат видео: AVI
Видео: XviD, 720х400, 16:9, 23,976 кадра/сек, 1029 Кбит/сек
Аудио: AC-3, 48,0 КГц, 192 Кбит/сек, 2: Front: L R

MediaInfo

Формат : AVI
Формат/Информация : Audio Video Interleave
Размер файла : 723 Мбайт
Продолжительность : 1 ч. 22 м.
Общий поток : 1230 Кбит/сек
Программа кодирования : VirtualDubMod 1.5.10.2 (build 2540/release)
Библиотека кодирования : VirtualDubMod build 2540/release
Видео
Идентификатор : 0
Формат : MPEG-4 Visual
Профиль формата : Advanced Simple@L5
Параметр BVOP формата : 1
Параметр QPel формата : Нет
Параметр GMC формата : Без точки перехода
Параметр матрицы формата : Default (MPEG)
Идентификатор кодека : XVID
Идентификатор кодека/Подсказка : XviD
Продолжительность : 1 ч. 22 м.
Битрейт : 1029 Кбит/сек
Ширина : 720 пикселей
Высота : 400 пикселей
Соотношение сторон : 16:9
Частота кадров : 23,976 кадра/сек
Цветовое пространство : YUV
Субдискретизация насыщенности : 4:2:0
Битовая глубина : 8 бит
Тип развёртки : Прогрессивная
Метод сжатия : С потерями
Бит/(Пиксели*Кадры) : 0.149
Размер потока : 604 Мбайт (84%)
Библиотека кодирования : XviD 1.2.1 (UTC 2008-12-04)
Аудио
Идентификатор : 1
Формат : AC-3
Формат/Информация : Audio Coding 3
Расширение режима : CM (complete main)
Параметр Endianness формата : Big
Идентификатор кодека : 2000
Продолжительность : 1 ч. 22 м.
Вид битрейта : Постоянный
Битрейт : 192 Кбит/сек
Каналы : 2 канала
Расположение каналов : Front: L R
Частота : 48,0 КГц
Битовая глубина : 16 бит
Метод сжатия : С потерями
Задержка видео : 9 мс.
Размер потока : 113 Мбайт (16%)
Выравнивание : Разделение по промежуткам
Продолжительность промежутка : 42 мс. (1,00 видеокадр)
Время предзагрузки промежутка : 500 мс.

Скриншот c названием фильма

Скриншоты





[Профиль] [ЛС]
Показать сообщения:    

Текущее время: Сегодня 10:16

Часовой пояс: GMT



Вы не можете начинать темы
Вы не можете отвечать на сообщения
Вы не можете редактировать свои сообщения
Вы не можете удалять свои сообщения
Вы не можете голосовать в опросах
Вы не можете прикреплять файлы к сообщениям
Вы не можете скачивать файлы