Осенний цвет Киото / Kyoto Autumn Color (2007) BDRip 720p от NNNB

 
Автор Сообщение

sergej644 ®

Пол:

Стаж: 4 года 11 месяцев

Сообщений: 6038

Откуда: Soviet Union



Награды: Нет

Торрент-статистика

Создавать темы 13-Дек-2014 20:39

[Цитировать]

Название: Осенний цвет Киото
Оригинальное название: Kyoto Autumn Color
Год выпуска: 2007
Жанр: Документальный, музыкальный
Выпущено: США, National Geographic Films
Перевод: Не требуется
О фильме: Потрясающие по красоте съемки осеннего японского сада под чарующие мелодии. Настоятельно рекомендуется к просмотру! Для тех кто дышит полной грудью, живет на пределе своих сил и любит жизнь. Данное видео прекрасный пример яркий образ окружающего нас мира. Факт самого существования нечто большего, чем бытовые разборки и жажда наживы. Это наш мир, наша жизнь, наше настоящее. Просто включите и погрузитесь хотя бы на миг в реалии жизненной сущности...
Качество: BDRip 720p (исходник Blu-ray Remux)
Формат: AVC (библиотека кодирования x.264)
Контейнер (Расширение): MKV
Видео: 1280x720, 7036 Кбит/сек, 29,970 кадр/сек, 0,255 Бит/[Пиксели*Кадры]
Аудио №1: AC3 / 2.0 / 48 kHz / 448 kbps / 16 bit
Продолжительность: 01:23:38
Автор рипа:

MediaInfo

Format : Matroska
Format version : Version 2
File size : 4.37 GiB
Duration : 1h 23mn
Overall bit rate : 7 486 Kbps
Movie name : Kyoto Autumn Color.(2007).BDRip.720p.[denis100]
Encoded date : UTC 2014-12-13 19:03:26
Writing application : mkvmerge v5.8.0 ('No Sleep / Pillow') built on Sep 2 2012 15:37:04
Writing library : libebml v1.2.3 + libmatroska v1.3.0
Video
ID : 1
Format : AVC
Format/Info : Advanced Video Codec
Format profile : High@L4.1
Format settings, CABAC : Yes
Format settings, ReFrames : 9 frames
Codec ID : V_MPEG4/ISO/AVC
Duration : 1h 23mn
Bit rate : 7 036 Kbps
Width : 1 280 pixels
Height : 720 pixels
Display aspect ratio : 16:9
Frame rate mode : Constant
Frame rate : 29.970 fps
Color space : YUV
Chroma subsampling : 4:2:0
Bit depth : 8 bits
Scan type : Progressive
Bits/(Pixel*Frame) : 0.255
Stream size : 4.02 GiB (92%)
Title : Kyoto Autumn Color.(2007).BDRip.720p.[denis100]
Writing library : x264 core 142 r2491 24e4fed
Encoding settings : cabac=1 / ref=9 / deblock=1:-3:-3 / analyse=0x3:0x133 / me=umh / subme=11 / psy=1 / psy_rd=1.00:0.10 / mixed_ref=1 / me_range=32 / chroma_me=1 / trellis=2 / 8x8dct=1 / cqm=0 / deadzone=21,11 / fast_pskip=0 / chroma_qp_offset=-3 / threads=6 / lookahead_threads=1 / sliced_threads=0 / nr=0 / decimate=1 / interlaced=0 / bluray_compat=0 / constrained_intra=0 / bframes=6 / b_pyramid=2 / b_adapt=2 / b_bias=0 / direct=3 / weightb=1 / open_gop=0 / weightp=2 / keyint=300 / keyint_min=29 / scenecut=40 / intra_refresh=0 / rc=2pass / mbtree=0 / bitrate=7036 / ratetol=1.0 / qcomp=0.60 / qpmin=0 / qpmax=69 / qpstep=4 / cplxblur=20.0 / qblur=0.5 / ip_ratio=1.40 / pb_ratio=1.30 / aq=2:0.90
Language : English
Default : Yes
Forced : No
Audio
ID : 2
Format : AC-3
Format/Info : Audio Coding 3
Mode extension : CM (complete main)
Format settings, Endianness : Big
Codec ID : A_AC3
Duration : 1h 23mn
Bit rate mode : Constant
Bit rate : 448 Kbps
Channel(s) : 2 channels
Channel positions : Front: L R
Sampling rate : 48.0 KHz
Bit depth : 16 bits
Compression mode : Lossy
Stream size : 268 MiB (6%)
Title : english
Language : English
Default : Yes
Forced : No

Скриншоты

[Профиль] [ЛС]
Показать сообщения:    

Текущее время: Сегодня 10:32

Часовой пояс: GMT



Вы не можете начинать темы
Вы не можете отвечать на сообщения
Вы не можете редактировать свои сообщения
Вы не можете удалять свои сообщения
Вы не можете голосовать в опросах
Вы не можете прикреплять файлы к сообщениям
Вы не можете скачивать файлы