Освободите Вилли: Побег из Пиратской бухты / Free Willy: Escape from Pirate\'s Cove (Уилл Гейджер / Will Geiger) [2010, США, драма, приключения, семейный, BDRip] MVO (iTunes) + Original + subs (Rus; full, forced, Eng SDH)

 
Автор Сообщение

painkiller ®

Стаж: 2 года 10 месяцев

Сообщений: 582



Награды: Нет

Торрент-статистика

Создавать темы 14-Авг-2014 13:01

[Цитировать]

Освободите Вилли: Побег из Пиратской бухты / Free Willy: Escape from Pirate's Cove- Год выпуска: 2010
Выпущено: США
Жанр: драма, приключения, семейный
Продолжительность: 01:41:20
Перевод: Профессиональный (многоголосый, закадровый) iTunes
+ Оригинальная звуковая дорожка
Субтитры: Русские (полные, форсированные), Английские SDH (внешние srt*)-Режиссер: Уилл Гейджер / Will Geiger
В ролях: Бинди Сью Ирвин, Бо Бриджес, Сийябулела Рамба, Стефен Дженнингс, Мэттью Дилан Робертс, Кевин Отто, Лоув Вентер, Дэррон Каллиган, Джинн Вильгельм
О фильме: Юная Кирра уезжает из своего дома в Австралии, чтобы провести лето в Южной Африке у дедушки. Вскоре она обнаруживает косатку, выброшенную на мель в лагуне неподалеку от дедушкиного захудалого увеселительного парка. Она называет нового друга Вилли — и начинает разработку плана возвращения кита в его стаю, пока жадный конкурент дедушки не превратил Вилли в самый прибыльный аттракцион своего тематического парка.
Релиз:
Автор: kingsize87
Качество: BDRip (источник: / BD-Remux / 1080p)
Формат: AVI
Видео: 704x400 (1.76:1), 23.976 fps, XviD build 65 ~2244 kbps avg, 0.33 bit/pixel
Аудио #1: 48 kHz, AC3 Dolby Digital, 3/2 (L,C,R,l,r) + LFE ch, ~384.00 kbps avg mvo
Аудио #2: 48 kHz, AC3 Dolby Digital, 3/2 (L,C,R,l,r) + LFE ch, ~448.00 kbps avg eng
Размер: 2235.40 Mb (1/2 DVD-R)
Скачать: Сэмпл-

Кадры из фильма


-

Mi

Формат : AVI
Формат/Информация : Audio Video Interleave
Профиль формата : OpenDML
Размер файла : 2,18 Гбайт
Продолжительность : 1 ч. 41 м.
Общий поток : 3084 Кбит/сек
Название фильма : Освободите Вилли: Побег из Пиратской бухты / Free Willy: Escape from Pirate's Cove (2010) BDRip
Режиссёр : yaroslaigor
Жанр : драма, приключения, семейный
Программа кодирования : VirtualDubMod 1.5.10.2 (build 2542/release)
Примечание : 24.04.2014
Видео
Идентификатор : 0
Формат : MPEG-4 Visual
Профиль формата : Advanced Simple@L5
Параметр BVOP формата : 1
Параметр QPel формата : Нет
Параметр GMC формата : Без точки перехода
Параметр матрицы формата : Выборочная
Идентификатор кодека : XVID
Идентификатор кодека/Подсказка : XviD
Продолжительность : 1 ч. 41 м.
Битрейт : 2234 Кбит/сек
Ширина : 704 пикселя
Высота : 400 пикселей
Соотношение сторон : 16:9
Частота кадров : 23,976 кадра/сек
Цветовое пространство : YUV
Субдискретизация насыщенности : 4:2:0
Битовая глубина : 8 бит
Тип развёртки : Прогрессивная
Метод сжатия : С потерями
Бит/(Пиксели*Кадры) : 0.331
Размер потока : 1,58 Гбайт (72%)
Библиотека кодирования : XviD 65
Аудио #1
Идентификатор : 1
Формат : AC-3
Формат/Информация : Audio Coding 3
Расширение режима : CM (complete main)
Параметр Endianness формата : Big
Идентификатор кодека : 2000
Продолжительность : 1 ч. 41 м.
Вид битрейта : Постоянный
Битрейт : 384 Кбит/сек
Каналы : 6 каналов
Расположение каналов : Front: L C R, Side: L R, LFE
Частота : 48,0 КГц
Битовая глубина : 16 бит
Метод сжатия : С потерями
Размер потока : 278 Мбайт (12%)
Выравнивание : Разделение по промежуткам
Продолжительность промежутка : 42 мс. (1,00 видеокадр)
Время предзагрузки промежутка : 500 мс.
Аудио #2
Идентификатор : 2
Формат : AC-3
Формат/Информация : Audio Coding 3
Расширение режима : CM (complete main)
Параметр Endianness формата : Big
Идентификатор кодека : 2000
Продолжительность : 1 ч. 41 м.
Вид битрейта : Постоянный
Битрейт : 448 Кбит/сек
Каналы : 6 каналов
Расположение каналов : Front: L C R, Side: L R, LFE
Частота : 48,0 КГц
Битовая глубина : 16 бит
Метод сжатия : С потерями
Размер потока : 325 Мбайт (15%)
Выравнивание : Разделение по промежуткам
Продолжительность промежутка : 42 мс. (1,00 видеокадр)
Время предзагрузки промежутка : 500 мс.

-
* Звуковая дорожка с iTunes лучше с DVD.
[Профиль] [ЛС]

Создавать темы 06-Авг-2015 23:14 (спустя 11 месяцев 23 дня)

Топик был перенесен из форума Фильмы до 2014 года в форум Фильмы до 2012 года
sergej644
 

Создавать темы 12-Июн-2016 07:54 (спустя 1 год 9 месяцев)

Топик был перенесен из форума Фильмы 2011 года в форум Фильмы 2010 года
Russian Mafia
 
Кто просматривает тему:

Показать сообщения:    

Текущее время: Сегодня 05:45

Часовой пояс: GMT



Вы не можете начинать темы
Вы не можете отвечать на сообщения
Вы не можете редактировать свои сообщения
Вы не можете удалять свои сообщения
Вы не можете голосовать в опросах
Вы не можете прикреплять файлы к сообщениям
Вы не можете скачивать файлы