Осведомитель / Sin yan (2010) DVD9 | P

 
Автор Сообщение

BOSS ®

Пол:

Стаж: 2 года 1 месяц

Сообщений: 3729

Откуда: ODESSA



Награды: 20 (Подробнее)

Mega Releaser 1 (Количество: 1) Mega Releaser 2 (Количество: 1) Top Seeder 2 (Количество: 1)
Торрент-статистика

Создавать темы 09-Янв-2016 19:48

[Цитировать]

--Информация о фильме
Название: Осведомитель
Оригинальное название: Sin yan
Год выхода: 2010
Жанр: боевик, триллер, драма
Режиссер: Данте Лам
В ролях: Николас Тсе, Ник Чун, Луньмэй Квай, Лью Кай Чи, Тони Хо, И Лу, Шин-Чюн Ли, Филип Кеунг, Дип Нг, Винсент Чик-О фильме:
Полицейский Дон Ли привык работать со стукачами, но слишком уж часто он бывает на грани провала, слишком часто операции срываются, вот почему мир теперь кажется ему лишь чередой предательств. Но знакомство с Гаем дает ему еще один шанс изменить свои взгляды на жизнь.- -Страна: Гонконг
Студия: Emperor Motion Pictures, Huayi Brothers Media, Sil-Metropole Organisation, Visual Capture
Продолжительность: 112 мин. / 01:52
Перевод: профессиональный (многоголосый, закадровый)-Файл
Кодек: MPEG2
Качество: DVD9 "Лизард"
Видео: PAL 16:9 (720x576@1024x576) VBR 5247 Kbps, 25.000 fps
Аудио 1: Dolby AC3 6 ch, 48.0 KHz, 384 Кbps (русский)
Аудио 2: Dolby AC3 2 ch, 48.0 KHz, 256 Кbps (русский, китайский)
Субтитры: русские--

MediaInfo

Общее
Полное имя : D:Osvedomitel.2010.DVD9VIDEO_TSVTS_02_1.VOB
Формат : MPEG-PS
Размер файла : 1024 Мбайт
Продолжительность : 22 м.
Режим общего битрейта : Переменный
Общий поток : 6268 Кбит/сек
Видео
Идентификатор : 224 (0xE0)
Формат : MPEG Video
Версия формата : Version 2
Профиль формата : Main@Main
Параметр BVOP формата : Да
Параметр матрицы формата : Выборочная
Параметр GOP формата : M=3, N=12
Структура изображения : Frame
Продолжительность : 22 м.
Вид битрейта : Переменный
Битрейт : 5247 Кбит/сек
Максимальный битрейт : 8000 Кбит/сек
Ширина : 720 пикселей
Высота : 576 пикселей
Соотношение сторон : 16:9
Частота кадров : 25,000 кадров/сек
Стандарт вещания : PAL
Цветовое пространство : YUV
Субдискретизация насыщенности : 4:2:0
Битовая глубина : 8 бит
Тип развёртки : Чересстрочная
Порядок развёртки : Верхнее поле первое
Метод сжатия : С потерями
Бит/(Пиксели*Кадры) : 0.506
Временной код первого кадра : 00:00:00:00
Оригинал временного кода : Group of pictures header
GOP, открыто/закрыто : Закрыто
Размер потока : 857 Мбайт (84%)
Основные цвета : BT.601 PAL
Характеристики трансфера : BT.470 System B, BT.470 System G
Коэффициенты матрицы : BT.601
Аудио #1
Идентификатор : 189 (0xBD)-128 (0x80)
Формат : AC-3
Формат/Информация : Audio Coding 3
Расширение режима : CM (complete main)
Параметр Endianness формата : Big
Режим смешивания : DVD-Video
Продолжительность : 22 м.
Вид битрейта : Постоянный
Битрейт : 384 Кбит/сек
Каналы : 6 каналов
Расположение каналов : Front: L C R, Side: L R, LFE
Частота : 48,0 КГц
Частота кадров : 31,250 кадров/сек (1536 spf)
Метод сжатия : С потерями
Размер потока : 62,7 Мбайт (6%)
Аудио #2
Идентификатор : 189 (0xBD)-129 (0x81)
Формат : AC-3
Формат/Информация : Audio Coding 3
Расширение режима : CM (complete main)
Параметр Endianness формата : Big
Режим смешивания : DVD-Video
Продолжительность : 22 м.
Вид битрейта : Постоянный
Битрейт : 256 Кбит/сек
Каналы : 2 канала
Расположение каналов : Front: L R
Частота : 48,0 КГц
Частота кадров : 31,250 кадров/сек (1536 spf)
Метод сжатия : С потерями
Размер потока : 41,8 Мбайт (4%)
Аудио #3
Идентификатор : 189 (0xBD)-130 (0x82)
Формат : AC-3
Формат/Информация : Audio Coding 3
Расширение режима : CM (complete main)
Параметр Endianness формата : Big
Режим смешивания : DVD-Video
Продолжительность : 22 м.
Вид битрейта : Постоянный
Битрейт : 256 Кбит/сек
Каналы : 2 канала
Расположение каналов : Front: L R
Частота : 48,0 КГц
Частота кадров : 31,250 кадров/сек (1536 spf)
Метод сжатия : С потерями
Размер потока : 41,8 Мбайт (4%)
Текст
Идентификатор : 189 (0xBD)-32 (0x20)
Формат : RLE
Формат/Информация : Run-length encoding
Режим смешивания : DVD-Video
Меню

Скриншоты


[Профиль] [ЛС]
Показать сообщения:    

Текущее время: Сегодня 01:09

Часовой пояс: GMT



Вы не можете начинать темы
Вы не можете отвечать на сообщения
Вы не можете редактировать свои сообщения
Вы не можете удалять свои сообщения
Вы не можете голосовать в опросах
Вы не можете прикреплять файлы к сообщениям
Вы не можете скачивать файлы