Оса-Ниссе – добро пожаловать в Кнохульт / Åsa-Nisse – wälkom to Knohult (Фредрик Буклюнд / Fredrik Bоklund) [2011, Швеция, Комедия, DVDRip] VO (Ростислав Ганичев)

 
Автор Сообщение

Один 777 ®

Пол:

Стаж: 3 года 8 месяцев

Сообщений: 505

Откуда: Луцк



Награды: 7 (Подробнее)

Mega Seeder 2 (Количество: 1) Mega Seeder 4 (Количество: 1) За внесенный вклад в развитие сайта (Количество: 1)
Торрент-статистика

Создавать темы 24-Ноя-2018 11:15

[Цитировать]

Оса-Ниссе – добро пожаловать в Кнохульт / Åsa-Nisse – wälkom to Knohult
Страна: Швеция / Strix Drama AB, Modern Studios
Жанр: Комедия
Год выпуска: 2011
Продолжительность: 01:25:37
Перевод: Одноголосый закадровый Ростислав Ганичев
Субтитры: нет
Режиссер: Фредрик Буклюнд / Fredrik Bоklund
В ролях: Челль Бергквист, Михаэль Сегерстрём, Анн Петрен, Сиссела Чуле, Юхан Гланс, Юхан Рабаеус, Хенрик Дорсин и другие.
Описание: Оса-Ниссе, гениальный сельский изобретатель из шведской провинции Смоланд, сконструировал уникальный насос для водоснабжения своего дома. Созданный механизм прославил его родной Кнохульт, спровоцировал правительственный кризис и поставил на уши весь мир. По мотивам популярных шведских комиксов.

Доп. информация

● В 1944 г. вышли первые юмористические рассказы Стига Седерхольма о похождениях жителя шведской глубинки Оса-Ниссе. С 1955 года он стал героем комиксов и изначально задумывался как собирательный образ среднего шведа, архетип жителя северного королевства, для которого характерны искренность, простота, немногословность, изобретательность и предприимчивость.
● Шведские кинематографисты многократно экранизировали истории про Осу-Ниссе, первый фильм снят в 1949 г. и всего разными режиссерами было сделано 20 картин, поэтому постановка 2011 г. стала по счету двадцать первой, ее второе название - "Оса-Ниссе 21".
● В комедии обыгрывается множество типичных шведских качеств, и не всегда положительных - в том числе главный шведский предрассудок - неприязнь к датчанам и жителям южной провинции Сконе, где говорят на полудатском диалекте, так как она в Средние века была частью Дании. Исполнители многих отрицательных персонажей фильма утрированно пародируют говор южан, так похожий на датскую речь.
Сэмпл: http://sendfile.su/1457214

Качество видео: DVDRip
Формат видео: AVI
Видео: 720x400 (1.80:1), 25 fps, DivX Codec 4.x ~2228 kbps avg, 0.31 bit/pixel
Аудио: 48 kHz, AC3 Dolby Digital, 2/0 (L,R) ch, ~192 kbps

MediaInfo

Общее
Полное имя : D:\Osa-Nisse_1400_Odin777\Osa-Nisse_1400_Odin777.avi
Формат : AVI
Формат/Информация : Audio Video Interleave
Размер файла : 1,45 Гбайт
Продолжительность : 1 ч. 25 м.
Общий поток : 2431 Кбит/сек
Программа кодирования : VirtualDubMod 1.5.10.3 (build 2550/release)
Библиотека кодирования : VirtualDubMod build 2550/release
Видео
Идентификатор : 0
Формат : MPEG-4 Visual
Профиль формата : Simple@L1
Параметр BVOP формата : Нет
Параметр QPel формата : Нет
Параметр GMC формата : Без точки перехода
Параметр матрицы формата : Default (H.263)
Идентификатор кодека : DIVX
Идентификатор кодека/Информация : Project Mayo
Идентификатор кодека/Подсказка : DivX 4
Продолжительность : 1 ч. 25 м.
Битрейт : 2229 Кбит/сек
Ширина : 720 пикселей
Высота : 400 пикселей
Соотношение сторон : 16:9
Частота кадров : 25,000 кадров/сек
Цветовое пространство : YUV
Субдискретизация насыщенности : 4:2:0
Битовая глубина : 8 бит
Тип развёртки : Прогрессивная
Метод сжатия : С потерями
Бит/(Пиксели*Кадры) : 0.310
Размер потока : 1,33 Гбайт (92%)
Библиотека кодирования : Lavc53.33.0
Аудио
Идентификатор : 1
Формат : AC-3
Формат/Информация : Audio Coding 3
Расширение режима : CM (complete main)
Параметр Endianness формата : Big
Идентификатор кодека : 2000
Продолжительность : 1 ч. 25 м.
Вид битрейта : Постоянный
Битрейт : 192 Кбит/сек
Каналы : 2 канала
Расположение каналов : Front: L R
Частота : 48,0 КГц
Частота кадров : 31,250 кадров/сек (1536 spf)
Метод сжатия : С потерями
Размер потока : 118 Мбайт (8%)
Выравнивание : Разделение по промежуткам
Продолжительность промежутка : 40 мс. (1,00 видеокадр)
Время предзагрузки промежутка : 500 мс.

Скриншот c названием фильма

Скриншоты

[Профиль] [ЛС]
Кто просматривает тему:

Показать сообщения:    

Текущее время: Сегодня 16:14

Часовой пояс: GMT



Вы не можете начинать темы
Вы не можете отвечать на сообщения
Вы не можете редактировать свои сообщения
Вы не можете удалять свои сообщения
Вы не можете голосовать в опросах
Вы не можете прикреплять файлы к сообщениям
Вы не можете скачивать файлы