Осада Масады / The Siege of Masada (Jason Williams) [2015 г., Документальный, история, SATRip]

 
Автор Сообщение

skorpionN ®

Пол:

Стаж: 1 год 8 месяцев

Сообщений: 591



Награды: 4 (Подробнее)

Mega Seeder 2 (Количество: 1) Mega Seeder 3 (Количество: 1) Mega Seeder 1 (Количество: 1)
Торрент-статистика

Создавать темы 12-Мар-2016 22:03

[Цитировать]

Осада Масады / The Siege of Masada
Год выпуска: 2015
Страна: США, JWM Production
Жанр: Документальный, история
Продолжительность: 00:51:00
Перевод: Профессиональный (двухголосый), компания "Видеофильм ТВ"
Режиссер: Jason Williams
Описание: В 70 году н. э., после взятия римскими легионами Иерусалима, горная крепость Масада оказалась последним оплотом восставших иудеев. Защитников крепости едва насчитывалось тысяча человек, включая женщин и детей, но они удерживали Масаду ещё три года. Около девяти тысяч римских рабов проводили дороги и носили землю для сооружения осадного вала вокруг крепости и площадок для метательных машин и тарана. Когда римлянам удалось поджечь дополнительно выстроенную сикариями внутреннюю оборонительную стену, состоящую из деревянных балок, участь Масады была решена...
Качество: SATRip
Формат: AVI
Видео кодек: XviD
Аудио кодек: AC3
Видео: 720x400 25fps ~1800 Kbps
Аудио: AC3 2ch, 48kHz, 192 kbps

Скриншоты


MediaInfo:

Format : AVI
Format/Info : Audio Video Interleave
File size : 729 MiB
Duration : 51mn 0s
Overall bit rate : 1 998 Kbps
Writing application : TMPGEnc Video Mastering Works 5 Version. 5.0.6.38
Writing library : TMPGEnc Video Mastering Works 5 Version. 5.0.6.38
Video
ID : 0
Format : MPEG-4 Visual
Format profile : Advanced Simple@L5
Format settings, BVOP : 2
Format settings, QPel : No
Format settings, GMC : No warppoints
Format settings, Matrix : Default (H.263)
Muxing mode : Packed bitstream
Codec ID : XVID
Codec ID/Hint : XviD
Duration : 51mn 0s
Bit rate : 1 799 Kbps
Width : 720 pixels
Height : 400 pixels
Display aspect ratio : 16:9
Frame rate : 25.000 fps
Color space : YUV
Chroma subsampling : 4:2:0
Bit depth : 8 bits
Scan type : Progressive
Compression mode : Lossy
Bits/(Pixel*Frame) : 0.250
Stream size : 656 MiB (90%)
Writing library : XviD 73
Audio
ID : 1
Format : AC-3
Format/Info : Audio Coding 3
Mode extension : CM (complete main)
Format settings, Endianness : Big
Codec ID : 2000
Duration : 51mn 0s
Bit rate mode : Constant
Bit rate : 192 Kbps
Channel(s) : 2 channels
Channel positions : Front: L R
Sampling rate : 48.0 KHz
Bit depth : 16 bits
Compression mode : Lossy
Stream size : 70.0 MiB (10%)
Alignment : Aligned on interleaves
Interleave, duration : 240 ms (6.00 video frames)
Interleave, preload duration : 224 ms
[Профиль] [ЛС]
Показать сообщения:    

Текущее время: Сегодня 08:12

Часовой пояс: GMT



Вы не можете начинать темы
Вы не можете отвечать на сообщения
Вы не можете редактировать свои сообщения
Вы не можете удалять свои сообщения
Вы не можете голосовать в опросах
Вы не можете прикреплять файлы к сообщениям
Вы не можете скачивать файлы