Орёл - царь неба / The Eagles (Фил Коулс / Phil Coles) [2014, Документальный, HDTVRip 720p]

 
Автор Сообщение

TorrentFilm ®

Пол:

Стаж: 2 года

Сообщений: 7741



Награды: Нет

Торрент-статистика

Создавать темы 20-Июл-2015 00:11

[Цитировать]

Орёл - царь неба / The Eagles
Год выпуска: 2014
Страна: Германия
Студия: Doclights GmbH / NDR Naturfim
Канал:
Жанр: Документальный
Продолжительность: 00:44:00
Перевод: Профессиональный (дублированный)
Доп. инфо о переводе: Студия "Велес" (Олег Белов)
Режиссер: Фил Коулс / Phil Coles
Описание: Орлы отличаются острым зрением, мощными крыльями, острыми когтями и крючкообразным клювом. Эти величественные хищники о которых тысячелетиями слагали мифы и легенды. Но и на вершине пищевой цепи они борются за выживание изо всех сил стараясь вырастить потомство. Сильные, многообразные, ловкие. Это невероятная история о завоеваниях одной особи. Чего стоит стать царём неба? Узнайте, как орлята, становятся хищными, гордыми, сильными и взрослыми птицами.
Тип релиза: HDTVRip 720p
Контейнер: MKV

Видео: MPEG-4 AVC (H.264), 1280x720 (16:9), 4800 Kbps, 25 fps, 0.208 bit\pixel
Аудио: MP2, 192 Кбит/с, 48 kHz, 2 ch

Mediainfo

General
Unique ID : 244725522867494211574594627010652570849 (0xB81C6BD7FFBDD7FEAD9DBA1055E484E1)
Complete name : D:\Видео\Флора и фауна\The Eagles HDTVRip-720p.mkv
Format : Matroska
Format version : Version 2
File size : 1.53 GiB
Duration : 43mn 58s
Overall bit rate : 4 992 Kbps
Movie name : HDTVRip by Vicman
Encoded date : UTC 2015-07-11 09:18:34
Writing application : mkvmerge v7.8.0 ('River Man') 32bit built on Apr 3 2015 12:11:22
Writing library : libebml v1.3.1 + libmatroska v1.4.2
Video
ID : 1
Format : AVC
Format/Info : Advanced Video Codec
Format profile : High@L4.1
Format settings, CABAC : Yes
Format settings, ReFrames : 6 frames
Codec ID : V_MPEG4/ISO/AVC
Duration : 43mn 58s
Bit rate : 4 800 Kbps
Width : 1 280 pixels
Height : 720 pixels
Display aspect ratio : 16:9
Frame rate mode : Constant
Frame rate : 25.000 fps
Color space : YUV
Chroma subsampling : 4:2:0
Bit depth : 8 bits
Scan type : Progressive
Bits/(Pixel*Frame) : 0.208
Stream size : 1.44 GiB (94%)
Writing library : x264 core 146 r2538 121396c
Encoding settings : cabac=1 / ref=6 / deblock=1:0:0 / analyse=0x3:0x113 / me=umh / subme=9 / psy=1 / psy_rd=1.05:0.15 / mixed_ref=1 / me_range=32 / chroma_me=1 / trellis=2 / 8x8dct=1 / cqm=0 / deadzone=21,11 / fast_pskip=1 / chroma_qp_offset=-3 / threads=6 / lookahead_threads=1 / sliced_threads=0 / nr=0 / decimate=1 / interlaced=0 / bluray_compat=0 / constrained_intra=0 / bframes=5 / b_pyramid=2 / b_adapt=2 / b_bias=0 / direct=3 / weightb=1 / open_gop=0 / weightp=2 / keyint=250 / keyint_min=25 / scenecut=40 / intra_refresh=0 / rc_lookahead=60 / rc=2pass / mbtree=1 / bitrate=4800 / ratetol=1.0 / qcomp=0.60 / qpmin=0 / qpmax=69 / qpstep=4 / cplxblur=20.0 / qblur=0.5 / vbv_maxrate=14000 / vbv_bufsize=14000 / nal_hrd=none / filler=0 / ip_ratio=1.40 / aq=1:1.00
Default : Yes
Forced : No
Audio
ID : 2
Format : MPEG Audio
Format version : Version 1
Format profile : Layer 2
Codec ID : A_MPEG/L2
Codec ID/Hint : MP2
Duration : 43mn 58s
Bit rate mode : Constant
Bit rate : 192 Kbps
Channel(s) : 2 channels
Sampling rate : 48.0 KHz
Compression mode : Lossy
Stream size : 60.4 MiB (4%)
Default : Yes
Forced : No

Скриншоты

[Профиль] [ЛС]
Показать сообщения:    

Текущее время: Сегодня 14:44

Часовой пояс: GMT



Вы не можете начинать темы
Вы не можете отвечать на сообщения
Вы не можете редактировать свои сообщения
Вы не можете удалять свои сообщения
Вы не можете голосовать в опросах
Вы не можете прикреплять файлы к сообщениям
Вы не можете скачивать файлы