Орнитологи - Земля красных людей / BirdWatchers - La terra degli uomini rossi (Marco Bechis / Марко Бечис) [2008, Италия, Бразилия, драма, DVDRip] VO

 
Автор Сообщение

TorrentFilm ®

Пол:

Стаж: 2 года

Сообщений: 7741



Награды: Нет

Торрент-статистика

Создавать темы 24-Апр-2015 00:04

[Цитировать]

Орнитологи - Земля красных людей / BirdWatchers - La terra degli uomini rossi
Страна: Италия, Бразилия
Жанр: драма
Год выпуска: 2008
Продолжительность: 01:39:33
Перевод: Одноголосый закадровый ( Lakota Sioux, chayka2)
Cубтитры: нет
Оригинальная аудиодорожка: нет
Режиссер: Marco Bechis / Марко Бечис
В ролях: Клаудио Сантамария, Алицелия Батиста Кабрейра, Кьяра Казелли, Абрисио да Силва Педро, Матеус Нахтергейл, Амбросио Вилхава, Адемилсон Кончианза Верга, Леонардо Медеройс, Eliane Juca da Silva, Fabiane Pereira da Silva
Описание: Итальянский-бразильский фильм «Орнитологи», выбран в качестве одного из фильмов в конкурсе на премию Золотой лев на Венецианском кинофестивале, подчеркивает бедственное положение гуарани-кайова индейцев в Бразилии, чьи земли разрушаются для производства биотоплива для автомобилей и других транспортных средств.. Орнитологи, это история любви в сельской Бразилии между дочерью владельца богатого ранчо и молодым гуарани, ученика шамана. Фильм знаменует актерский дебют индейцев гуарани в главных ролях, в том числе Абрисио да Силва Педро в качестве ученика шамана. Орнитологи показывает, как гуарани
выселяют с их земель и страдают от ужасных условий жизни, община гуарани в фильме решает забрать свою землю у ранчеро, который занял её. Эта попытка встретила жестокие репрессии. Гуарани актер Ambrósio Vilhava выразил надежду, что фильм приведет к юридическому признанию земли гуарани. В 2008 Ambrósio присутствовал на премьере "орнитологов" на Венецианском кинофестивале. Лидер Гуарани, Ambrósio Vilhalva был убит в ночь на воскресенье 3 декабря 2013, после десятилетий борьбы за право его племени жить на земле своих предков. Он был найден мертвым в своей хижине, с несколькими ножевыми ранениями. Ambrósio снялся в роли главного героя Наджо. Полиция расследует убийство, а двое подозреваемых, как сообщается, был задержаны. Этот фильм мы перевели в память о нем.

Бразилия является одним из мировых лидеров по производству биотоплива на протяжении десятилетий. Страна также стремится стать ведущим экспортером этанола. Большая часть сахарного тростника, из которого этанол производится выращивается на землях, ранее занятых лесами Гуарани. Многие дети страдают, а некоторые умерли, от серьезного недоедания. В последние 20 лет, 517 гуарани-кайова совершили самоубийство: многие молодые люди. Самый молодой, Люциан Ортис, ему было всего 9 лет. Гуарани кайова живут в бразильском штате Мату-Гросу-ду-Сул. Они потеряли большую часть своей земли.
Доп. информация: Рип к фильму был найден в сети. Перевел его на русский язык Lakota Sioux. Отредактирован и озвучен chayka2
релиз
Сэмпл: http://multi-up.com/1044383
Качество видео: DVDRip
Формат видео: AVI
Видео: Xvid 576x240 25fps 840 Kbps
Аудио: MP3 48000Hz stereo 192kbps русская

MediaInfo

General
Complete name : H:\Земля красных людей-\BirdWatchers_2008.DVDRIP.Xvid.torrentfilm.net.avi
Format : AVI
Format/Info : Audio Video Interleave
File size : 742 MiB
Duration : 1h 39mn
Overall bit rate : 1 042 Kbps
Writing application : VirtualDubMod 1.5.10.2 (build 2542/release)
Writing library : VirtualDubMod build 2542/release
Video
ID : 0
Format : MPEG-4 Visual
Format profile : Advanced Simple@L5
Format settings, BVOP : Yes
Format settings, QPel : No
Format settings, GMC : No warppoints
Format settings, Matrix : Default (MPEG)
Codec ID : XVID
Codec ID/Hint : XviD
Duration : 1h 39mn
Bit rate : 840 Kbps
Width : 576 pixels
Height : 240 pixels
Display aspect ratio : 2.40:1
Frame rate : 25.000 fps
Color space : YUV
Chroma subsampling : 4:2:0
Bit depth : 8 bits
Scan type : Progressive
Compression mode : Lossy
Bits/(Pixel*Frame) : 0.243
Stream size : 598 MiB (81%)
Writing library : XviD 1.2.1 (UTC 2008-12-04)
Audio
ID : 1
Format : MPEG Audio
Format version : Version 1
Format profile : Layer 3
Mode : Joint stereo
Codec ID : 55
Codec ID/Hint : MP3
Duration : 1h 39mn
Bit rate mode : Constant
Bit rate : 192 Kbps
Channel(s) : 2 channels
Sampling rate : 48.0 KHz
Compression mode : Lossy
Stream size : 137 MiB (18%)
Alignment : Aligned on interleaves
Interleave, duration : 40 ms (1.00 video frame)
Interleave, preload duration : 504 ms

Скриншот c названием фильма

Скриншоты





[Профиль] [ЛС]

Создавать темы 06-Авг-2015 22:35 (спустя 3 месяца 12 дней)

Топик был перенесен из форума Фильмы до 2014 года в форум Фильмы до 2012 года
sergej644
 

Создавать темы 12-Июн-2016 08:52 (спустя 1 год 1 месяц)

Топик был перенесен из форума Фильмы 2011 года в форум Фильмы 2006-2008 года
Russian Mafia
 
Кто просматривает тему:

Показать сообщения:    

Текущее время: Сегодня 00:34

Часовой пояс: GMT



Вы не можете начинать темы
Вы не можете отвечать на сообщения
Вы не можете редактировать свои сообщения
Вы не можете удалять свои сообщения
Вы не можете голосовать в опросах
Вы не можете прикреплять файлы к сообщениям
Вы не можете скачивать файлы