Орленок (Витольд Бордзиловский) [1968, рисованный, VHSRip]

 
Автор Сообщение

painkiller ®

Стаж: 2 года 3 месяца

Сообщений: 582



Награды: Нет

Торрент-статистика

Создавать темы 27-Авг-2014 15:29

[Цитировать]

Орленок
Страна: СССР
Жанр: рисованный
Продолжительность: 00:20:36
Год выпуска: 1968
Русские субтитры: нет
Режиссёр: Витольд Бордзиловский
Роли озвучивали: Алексей Полевой, Клара Румянова, Александр Баранов, Валентина Сперантова
Описание: На темы известной песни "Орленок" о юном трубаче - герое Гражданской войны.
Семпл: http://narod.ru/disk/64105813001.c9da02333debdb7611...ksample.avi.html
Качество: VHSRip
Формат: AVI
Видео: XviD 512х378 25.000 fps 1337 Kbps
Аудио: MP3 48.0 KHz 2 channels 128 Kbps
Субтитры: отсутствуют

Подробные технические данные

GeneralComplete name : C:\Users\Саша\Downloads\Видео\orlenok.aviFormat : AVIFormat/Info : Audio Video InterleaveFile size : 203 MiBDuration : 19mn 9sOverall bit rate : 1 478 Kbps
VideoID : 1Format : MPEG-4 VisualFormat profile : Simple@L3Format settings, BVOP : YesFormat settings, QPel : NoFormat settings, GMC : No warppointsFormat settings, Matrix : Default (H.263)Muxing mode : Packed bitstreamCodec ID : XVIDCodec ID/Hint : XviDDuration : 19mn 9sBit rate : 1 337 KbpsWidth : 512 pixelsHeight : 378 pixelsDisplay aspect ratio : 4:3Frame rate : 25.000 fpsResolution : 8 bitsColorimetry : 4:2:0Scan type : ProgressiveBits/(Pixel*Frame) : 0.276Stream size : 183 MiB (90%)Writing library : XviD 1.1.0 Beta2 (UTC 2005-04-04)
AudioID : 0Format : MPEG AudioFormat version : Version 1Format profile : Layer 3Mode : Dual monoCodec ID : 55Codec ID/Hint : MP3Duration : 19mn 9sBit rate mode : ConstantBit rate : 128 KbpsChannel(s) : 2 channelsSampling rate : 48.0 KHzVideo delay : 24msStream size : 17.5 MiB (9%)Alignment : Split accross interleavesInterleave, duration : 40 ms (1.00 video frame)

Скриншоты





[Профиль] [ЛС]
Показать сообщения:    

Текущее время: Сегодня 16:22

Часовой пояс: GMT



Вы не можете начинать темы
Вы не можете отвечать на сообщения
Вы не можете редактировать свои сообщения
Вы не можете удалять свои сообщения
Вы не можете голосовать в опросах
Вы не можете прикреплять файлы к сообщениям
Вы не можете скачивать файлы