Орлеан (Андрей Прошкин) [2015, Россия, комедия, триллер, WEB-DL 1080p] + Original Rus

 
Автор Сообщение

TorrentFilm ®

Пол:

Стаж: 2 года

Сообщений: 7741



Награды: Нет

Торрент-статистика

Создавать темы 26-Фев-2016 00:08

[Цитировать]

Орлеан
Страна: Россия
Студия: Aksioma Media и др.
Жанр: комедия, триллер
Год выпуска: 2015
Продолжительность: 01:50:19
Перевод: Не требуется
Cубтитры: нет
Оригинальная аудиодорожка: русский
Режиссер: Андрей Прошкин
В ролях: Елена Лядова, Виктор Сухоруков, Виталий Хаев, Олег Ягодин, Тимофей Трибунцев, Павел Табаков, Евгений Сытый, Александр Бавтриков, Азамат Нигманов, Полина Шулика
Описание: На русский провинциальный город с необычным названием Орлеан надвигается буря. Пока что о ней не догадываются его жители: парикмахерша Лида спит с кем ни попадя; врач Рудик водит к себе девиц, пользуясь служебным положением; полицейский не гнушается убийством; а фокусник, кажется, и вправду перепиливает девушек на сцене.

Sample
Тип релиза: WEB-DL 1080p
Контейнер: MKV
Видео: MPEG4 AVC Video, H264, 16:9, 1920x804, 24 fps, 4456 kbps
Аудио: Russian (AC3, 6 ch, 384 kbps, 16 bits, 48.0 KHz) - оригинал

MediaInfo

General
Unique ID : 224803968558350839862147220718813004774 (0xA91FAB6225C038B1B4ADCAA4C78543E6)
Complete name : E:\Орлеан 2015 WEB-DL 1080p.mkv
Format : Matroska
Format version : Version 4 / Version 2
File size : 3.81 GiB
Duration : 1h 50mn
Overall bit rate : 4 939 Kbps
Encoded date : UTC 2015-10-17 18:22:13
Writing application : mkvmerge v8.3.0 ('Over the Horizon') 64bit
Writing library : libebml v1.3.1 + libmatroska v1.4.2
DURATION : 01:50:19.840000000
NUMBER_OF_FRAMES : 206870
NUMBER_OF_BYTES : 317752320
_STATISTICS_WRITING_APP : mkvmerge v8.3.0 ('Over the Horizon') 64bit
_STATISTICS_WRITING_DATE_UTC : 2015-10-17 18:22:13
_STATISTICS_TAGS : BPS DURATION NUMBER_OF_FRAMES NUMBER_OF_BYTES
Video
ID : 1
Format : AVC
Format/Info : Advanced Video Codec
Format profile : High@L4.0
Format settings, CABAC : Yes
Format settings, ReFrames : 5 frames
Codec ID : V_MPEG4/ISO/AVC
Duration : 1h 50mn
Bit rate : 4 456 Kbps
Width : 1 920 pixels
Height : 804 pixels
Display aspect ratio : 2.40:1
Frame rate mode : Constant
Frame rate : 24.000 fps
Color space : YUV
Chroma subsampling : 4:2:0
Bit depth : 8 bits
Scan type : Progressive
Bits/(Pixel*Frame) : 0.120
Stream size : 3.43 GiB (90%)
Language : English
Default : Yes
Forced : No
Color primaries : BT.709
Transfer characteristics : BT.709
Matrix coefficients : BT.709
Audio
ID : 2
Format : AC-3
Format/Info : Audio Coding 3
Mode extension : CM (complete main)
Format settings, Endianness : Big
Codec ID : A_AC3
Duration : 1h 50mn
Bit rate mode : Constant
Bit rate : 384 Kbps
Channel count : 6 channels
Channel positions : Front: L C R, Side: L R, LFE
Sampling rate : 48.0 KHz
Bit depth : 16 bits
Compression mode : Lossy
Stream size : 303 MiB (8%)
Language : Russian
Default : Yes
Forced : No
Menu
00:00:00.000 : en:Глава 1
00:06:38.000 : en:Глава 2
00:12:22.000 : en:Глава 3
00:18:39.000 : en:Глава 4
00:24:03.000 : en:Глава 5
00:29:15.000 : en:Глава 6
00:34:38.000 : en:Глава 7
00:39:45.000 : en:Глава 8
00:44:38.000 : en:Глава 9
00:50:52.000 : en:Глава 10
00:57:24.000 : en:Глава 11
01:02:38.000 : en:Глава 12
01:08:00.000 : en:Глава 13
01:14:18.000 : en:Глава 14
01:19:31.000 : en:Глава 15
01:24:22.000 : en:Глава 16
01:29:24.000 : en:Глава 17
01:35:16.000 : en:Глава 18
01:41:11.000 : en:Глава 19

Скриншоты

[Профиль] [ЛС]
Показать сообщения:    

Текущее время: Сегодня 18:45

Часовой пояс: GMT



Вы не можете начинать темы
Вы не можете отвечать на сообщения
Вы не можете редактировать свои сообщения
Вы не можете удалять свои сообщения
Вы не можете голосовать в опросах
Вы не можете прикреплять файлы к сообщениям
Вы не можете скачивать файлы