Ореховый прутик (Иван Аксенчук) [1955, мультфильм, короткометражный, DVDRip-AVC]

 
Автор Сообщение

TorrentFilm ®

Пол:

Стаж: 2 года

Сообщений: 7741



Награды: Нет

Торрент-статистика

Создавать темы 20-Дек-2014 02:00

[Цитировать]

Ореховый прутик Страна: СССР
Жанр: мультфильм, короткометражный
Продолжительность: 00:19:31
Год выпуска: 1955
Перевод: Не требуется
Русские субтитры: нет
Режиссёр: Иван Аксенчук
Роли озвучивали: Юлия Юльская, Маргарита Корабельникова, Александр Ханов, Георгий Вицин, Геннадий Дудник, Юлия Феоктистова
Описание: История о храброй и доброй девочке Мариуке, отправившейся на поиски своего брата, которого унесла злая колдунья.
Доп. информация:

Раздача ведется с 9 до 24 Киев
Качество: DVDRip
Формат: MKV
Видео: AVC (H.264), 686x574@732x574 (1.275:1), 25 fps, 2000kbps
Аудио: 48 kHz, АC-3, 2 ch, ~192 kbps

Подробные технические данные

ОбщееУникальный идентификатор : 200541781403727501844579887167869587319 (0x96DEF133678AB06B9084EBD3C67C8F77)Полное имя : D:\Фильмы\OREHOVY_PRUTIK\Ореховый п\Ореховый прутик (1955).mkvФормат : MatroskaВерсия формата : Version 4 / Version 2Размер файла : 306 МбайтПродолжительность : 19 м.Общий поток : 2194 Кбит/секДата кодирования : UTC 2014-11-19 16:48:14Программа кодирования : mkvmerge v7.0.0 ('Where We Going') 32bit built on Jun 9 2014 15:08:34Библиотека кодирования : libebml v1.3.0 + libmatroska v1.4.1DURATION : 00:19:31.392000000NUMBER_OF_FRAMES : 36606NUMBER_OF_BYTES : 28113408_STATISTICS_WRITING_APP : mkvmerge v7.0.0 ('Where We Going') 32bit built on Jun 9 2014 15:08:34_STATISTICS_WRITING_DATE_UTC : 2014-11-19 16:48:14_STATISTICS_TAGS : BPS DURATION NUMBER_OF_FRAMES NUMBER_OF_BYTES
ВидеоИдентификатор : 2Формат : AVCФормат/Информация : Advanced Video CodecПрофиль формата : High@L4.1Параметр CABAC формата : ДаПараметр ReFrames формата : 10 кадровИдентификатор кодека : V_MPEG4/ISO/AVCПродолжительность : 19 м.Битрейт : 2000 Кбит/секШирина : 686 пикселейВысота : 574 пикселяСоотношение сторон : 1,274Соотношение сторон в оригинале : 1,275Частота кадров : 25,000 кадров/секЦветовое пространство : YUVСубдискретизация насыщенности : 4:2:0Битовая глубина : 8 битТип развёртки : ПрогрессивнаяБит/(Пиксели*Кадры) : 0.203Размер потока : 274 Мбайт (89%)Библиотека кодирования : x264 core 142 r2431 ac76440Настройки программы : cabac=1 / ref=10 / deblock=1:-2:-2 / analyse=0x3:0x113 / me=umh / subme=10 / psy=1 / psy_rd=1.00:0.00 / mixed_ref=1 /me_range=32 / chroma_me=1 / trellis=2 / 8x8dct=1 / cqm=0 / deadzone=21,11 / fast_pskip=0 / chroma_qp_offset=-2 / threads=3 / lookahead_threads=1 /sliced_threads=0 / nr=0 / decimate=1 / interlaced=0 / bluray_compat=0 / constrained_intra=0 / bframes=10 / b_pyramid=2 / b_adapt=2 / b_bias=0 / direct=3 /weightb=1 / open_gop=0 / weightp=2 / keyint=250 / keyint_min=25 / scenecut=40 / intra_refresh=0 / rc_lookahead=50 / rc=2pass / mbtree=1 / bitrate=2000 /ratetol=1.0 / qcomp=0.60 / qpmin=0 / qpmax=69 / qpstep=4 / cplxblur=20.0 / qblur=0.5 / ip_ratio=1.40 / aq=1:1.00Язык : EnglishDefault : ДаForced : Нет
АудиоИдентификатор : 1Формат : AC-3Формат/Информация : Audio Coding 3Расширение режима : CM (complete main)Параметр Endianness формата : BigИдентификатор кодека : A_AC3Продолжительность : 19 м.Вид битрейта : ПостоянныйБитрейт : 192 Кбит/секКаналы : 2 каналаРасположение каналов : Front: L RЧастота : 48,0 КГцБитовая глубина : 16 битМетод сжатия : С потерямиРазмер потока : 26,8 Мбайт (9%)Default : ДаForced : НетDURATION : 00:19:31.400000000NUMBER_OF_FRAMES : 29285NUMBER_OF_BYTES : 292931090_STATISTICS_WRITING_APP : mkvmerge v7.0.0 ('Where We Going') 32bit built on Jun 9 2014 15:08:34_STATISTICS_WRITING_DATE_UTC : 2014-11-19 16:48:14_STATISTICS_TAGS : BPS DURATION NUMBER_OF_FRAMES NUMBER_OF_BYTES

Скриншоты

[Профиль] [ЛС]
Кто просматривает тему:

Показать сообщения:    

Текущее время: Сегодня 22:31

Часовой пояс: GMT



Вы не можете начинать темы
Вы не можете отвечать на сообщения
Вы не можете редактировать свои сообщения
Вы не можете удалять свои сообщения
Вы не можете голосовать в опросах
Вы не можете прикреплять файлы к сообщениям
Вы не можете скачивать файлы