Орел против акулы / Eagle vs Shark (Таика Вайтити / Taika Waititi) [2007, Новая Зеландия, мелодрама, комедия, HDRip] DVO (Ozz) + Original Eng + Sub (Rus, Eng)

 
Автор Сообщение

TorrentFilm ®

Пол:

Стаж: 2 года

Сообщений: 7741



Награды: Нет

Торрент-статистика

Создавать темы 21-Дек-2014 02:00

[Цитировать]

Орел против акулы / Eagle vs SharkГод выпуска: 2007
Страна: Новая Зеландия
Жанр: мелодрама, комедия
Продолжительность: 01:27:20
Перевод: Профессиональный (двухголосый закадровый) [Ozz]
Оригинальная аудиодорожка: английский
Cубтитры: русские, английские-Режиссер: Таика Вайтити / Taika Waititi
В ролях: Лорен Тейлор, Джемейн Клемент, Джоэль Тобек, Брайан Серджент, Крэйг Холл, Рэйчел Хаус, Мораг Хиллс, Бернард Стюарт, Таика Вайтити, Дэвид Фейн-Описание: От создателей "Полета Конкордов"!
Уволенной кассирше фастфуда удалось заполучить парня своей мечты, который работает продавцом в магазине видеокассет, а на досуге занимается концептуальным творчеством, например изготовлением свечек и сборкой моделей самолётов. Вместе они отправляются в его родной город для того чтобы отомстить его давнишнему школьному обидчику.-Релиз группы:
Роли озвучивали: Ирина Воронова и Алексей Серегин
Перевод: Trotteville-
Качество видео: HDRip
Формат видео: AVI
Видео: 720x384 (1.85:1); 1481 Kbps; 24 fps; 0,223 bpp
Аудио 1: 48 kHz, AC3, 3/2 (L,C,R,l,r) + LFE ch, 448 kbps (русский)
Аудио 2: 48 kHz, AC3, 3/2 (L,C,R,l,r) + LFE ch, 448 kbps (оригинал)
Формат субтитров: softsub (SRT)

MediaInfo

General
Complete name : E:\Видео\Перезаливка\Eagle vs Shark (2007) [Ozz]\Eagle.vs.Shark.2007.P.HDRip.avi
Format : AVI
Format/Info : Audio Video Interleave
File size : 1.46 GiB
Duration : 1h 27mn
Overall bit rate : 2 391 Kbps
Writing application : VirtualDubMod 1.5.10.3 | www.virtualdub-fr.org || (build 2550/release)
Writing library : VirtualDubMod build 2550/release
Video
ID : 0
Format : MPEG-4 Visual
Format profile : Advanced Simple@L5
Format settings, BVOP : 1
Format settings, QPel : No
Format settings, GMC : No warppoints
Format settings, Matrix : Default (MPEG)
Codec ID : XVID
Codec ID/Hint : XviD
Duration : 1h 27mn
Bit rate : 1 481 Kbps
Width : 720 pixels
Height : 384 pixels
Display aspect ratio : 1.85:1
Frame rate : 24.000 fps
Color space : YUV
Chroma subsampling : 4:2:0
Bit depth : 8 bits
Scan type : Progressive
Compression mode : Lossy
Bits/(Pixel*Frame) : 0.223
Stream size : 925 MiB (62%)
Writing library : XviD 73
Audio #1
ID : 1
Format : AC-3
Format/Info : Audio Coding 3
Mode extension : CM (complete main)
Format settings, Endianness : Big
Codec ID : 2000
Duration : 1h 27mn
Bit rate mode : Constant
Bit rate : 448 Kbps
Channel count : 6 channels
Channel positions : Front: L C R, Side: L R, LFE
Sampling rate : 48.0 KHz
Bit depth : 16 bits
Compression mode : Lossy
Stream size : 280 MiB (19%)
Alignment : Split accross interleaves
Interleave, duration : 42 ms (1.00 video frame)
Interleave, preload duration : 500 ms
Audio #2
ID : 2
Format : AC-3
Format/Info : Audio Coding 3
Mode extension : CM (complete main)
Format settings, Endianness : Big
Codec ID : 2000
Duration : 1h 27mn
Bit rate mode : Constant
Bit rate : 448 Kbps
Channel count : 6 channels
Channel positions : Front: L C R, Side: L R, LFE
Sampling rate : 48.0 KHz
Bit depth : 16 bits
Compression mode : Lossy
Stream size : 280 MiB (19%)
Alignment : Split accross interleaves
Interleave, duration : 42 ms (1.00 video frame)
Interleave, preload duration : 500 ms

Скриншоты

[Профиль] [ЛС]

Создавать темы 06-Авг-2015 22:53 (спустя 7 месяцев 16 дней)

Топик был перенесен из форума Фильмы до 2014 года в форум Фильмы до 2012 года
sergej644
 
Кто просматривает тему:

Показать сообщения:    

Текущее время: Сегодня 16:39

Часовой пояс: GMT



Вы не можете начинать темы
Вы не можете отвечать на сообщения
Вы не можете редактировать свои сообщения
Вы не можете удалять свои сообщения
Вы не можете голосовать в опросах
Вы не можете прикреплять файлы к сообщениям
Вы не можете скачивать файлы