Ордена Великой Победы (Элла Тухарели) [2015, документальный, DVB - HDTV 1080i]

 
Автор Сообщение

TorrentFilm ®

Пол:

Стаж: 2 года

Сообщений: 7741



Награды: Нет

Торрент-статистика

Создавать темы 07-Май-2015 00:04

[Цитировать]

Ордена Великой Победы
Дата/Год выпуска: 2015
Страна: Россия
Жанр: документальный
Продолжительность: 00:43:41
Перевод: Не требуется
Русские субтитры: нет
Оригинальная аудиодорожка: русский
Режиссер: Элла Тухарели
Телеканал: Россия HD
Описание: …Июнь 1945 года. Маршал Советского Союза Жуков прибыл во Франкфурт-на-Майне, чтобы вручить Верховному Главнокомандующему союзными экспедиционными силами в Западной Европе, американскому генералу Эйзенхауэру, орден "Победа" - высшую военную награду СССР, которой его удостоили по решению Советского правительства. Эйзенхауэр был поражен - такого ордена он не видел еще никогда.
Американские ювелиры, которым он показал орден, были восхищены им. И в то же время не могли поверить, что эта награда была изготовлена в Советском Союзе – стране, разрушенной войной.
В годы Великой Отечественной войны в СССР появились девять боевых орденов – от "маршальского" ордена "Победа" до "солдатского" ордена Славы. Они стали не только неотъемлемой частью истории нашей страны и символам военных подвигов, но настоящим культурным достоянием, предметами, имеющими немалую художественную ценность.
На основе уникальных архивных документов авторы фильма расскажут об истории появления этих орденов, о людях, создавших их и награжденных ими. Впервые будут показаны самые первых проекты таких наград, как орден "Победа", орден Александра Невского, орден Славы.
Некоторые из них изменились почти до неузнаваемости. И менял их лично Сталин. Его замечания и указания сохранились на проектах орденов. Он определял как рисунки на них, так и материал, из которых они должны были быть изготовлены. Какими же хотел их видеть вождь народов?
В истории орденов военного времени до сих пор остается немало тайн, интриг и легенд. Одна из тайн была и у создателя "Победы", ювелира Ивана Казенного. Именно этот орден и сейчас считается одной из самых красивых и искусно изготовленных наград мира. Свою тайну Казеннов раскрыл только перед смертью…
В фильме принимают участие специалисты Московского монетного двора, ветераны Великой Отечественной войны, историки, потомки создателей орденов Победы.
Автор сценария: Светлана Таракановская
качество: DVB - HDTV 1080i
формат: TS/M2TS
Видео: MPEG-TS, AVC, Н264, 9688 Кбит/сек, 1920х1080, 16:9, 25,000 кадров/сек, Чересстрочная
Аудио: MPEG Audio, Version 1, Layer 2, 192 Кбит/сек, 2 канала, 48,0 КГц

MediaInfo

Формат : MPEG-TSРазмер файла : 3,17 ГбайтПродолжительность : 43 м.Режим общего битрейта : ПеременныйОбщий поток : 10,4 Мбит/сек
ВидеоИдентификатор : 1101 (0x44D)Идентификатор меню : 19000 (0x4A38)Формат : AVCФормат/Информация : Advanced Video CodecПрофиль формата : Main@L4.0Параметр CABAC формата : ДаПараметр ReFrames формата : 3 кадраИдентификатор кодека : 27Продолжительность : 43 м.Битрейт : 9688 Кбит/секШирина : 1920 пикселейВысота : 1080 пикселейСоотношение сторон : 16:9Частота кадров : 25,000 кадров/секСтандарт вещания : ComponentЦветовое пространство : YUVСубдискретизация насыщенности : 4:2:0Битовая глубина : 8 битТип развёртки : ЧересстрочнаяПорядок развёртки : Верхнее поле первоеБит/(Пиксели*Кадры) : 0.187Размер потока : 2,96 Гбайт (93%)Основные цвета : BT.709Характеристики трансфера : BT.709Коэффициенты матрицы : BT.709colour_range : Limited
АудиоИдентификатор : 1102 (0x44E)Идентификатор меню : 19000 (0x4A38)Формат : MPEG AudioВерсия формата : Version 1Профиль формата : Layer 2Идентификатор кодека : 3Продолжительность : 43 м.Вид битрейта : ПостоянныйБитрейт : 192 Кбит/секКаналы : 2 каналаЧастота : 48,0 КГцМетод сжатия : С потерямиРазмер потока : 60,0 Мбайт (2%)Язык : Russian

Скриншоты

[Профиль] [ЛС]
Показать сообщения:    

Текущее время: Сегодня 08:14

Часовой пояс: GMT



Вы не можете начинать темы
Вы не можете отвечать на сообщения
Вы не можете редактировать свои сообщения
Вы не можете удалять свои сообщения
Вы не можете голосовать в опросах
Вы не можете прикреплять файлы к сообщениям
Вы не можете скачивать файлы