Опустевший город / Reign Over Me (Майк Байндер / Mike Binder) [2007, США, драма, HDRip] MVO (Первый канал) + Original Eng

 
Автор Сообщение

TorrentFilm ®

Пол:

Стаж: 2 года

Сообщений: 7741



Награды: Нет

Торрент-статистика

Создавать темы 30-Май-2015 00:04

[Цитировать]

Опустевший город / Reign Over Me- Страна: США
Жанр: драма
Год выпуска: 2007
Продолжительность: 02:04:33-Перевод: Профессиональный (многоголосый, закадровый) Первый канал [Текст читали: Василий Зотов, Андрей Бархударов, Валерий Сторожик, Наталья Казначеева, Жанна Никонова и Светлана Старикова]
Cубтитры: нет
Оригинальная аудиодорожка: английский-Режиссер: Майк Байндер / Mike Binder-В ролях: Адам Сэндлер, Дон Чидл, Джада Пинкетт Смит, Лив Тайлер, Саффрон Берроуз, Дональд Сазерленд, Роберт Клейн, Мелинда Диллон, Майк Байндер, Джонатан Бэнкс-Описание: Чарли Файнман и Алан Джонсон когда-то вместе учились в колледже и делили одну комнату в общежитии. Спустя годы они встречаются вновь и возобновляют дружеские отношения. Судьба по-разному обошлась с ними.
Чарли, потерявший во время терактов 11 сентября жену и детей, поставил на своей жизни крест. Алан же стал хорошим дантистом и примерным семьянином. Случайная встреча становится для них переломным моментом в жизни, поскольку и тот, и другой как никогда испытывают потребность в преданном друге…-Сэмпл: https://www.sendspace.com/file/5ijrtx-Качество видео: HDRip
Формат видео: AVI
Видео: 720x304 (2.37:1), 23.976 fps, XviD build 50 ~1211 kbps avg, 0.23 bit/pixel
Аудио #1: 48.0 KHz, AC3, 2 channels (L, R) ~ 192 kbps (Первый)
Аудио #2: 48.0 KHz, AC3, 2 channels (L, R) ~ 192 kbps (Оригинал)-

Благодарности[size=15][font="Georgia

За видео благодарим Scarabey, за сихронизацию русской дорожки - mister55555MediaInfo"]
General
Complete name : D:\Опустевший город.avi
Format : AVI
Format/Info : Audio Video Interleave
File size : 1.46 GiB
Duration : 2h 4mn
Overall bit rate : 1 674 Kbps
Writing application : VirtualDubMod 1.5.10.2 (build 2540/release)
Writing library : VirtualDubMod build 2540/release
Video
ID : 0
Format : MPEG-4 Visual
Format profile : Advanced Simple@L5
Format settings, BVOP : 1
Format settings, QPel : No
Format settings, GMC : No warppoints
Format settings, Matrix : Custom
Codec ID : XVID
Codec ID/Hint : XviD
Duration : 2h 4mn
Bit rate : 1 212 Kbps
Width : 720 pixels
Height : 304 pixels
Display aspect ratio : 2.35:1
Frame rate : 23.976 fps
Color space : YUV
Chroma subsampling : 4:2:0
Bit depth : 8 bits
Scan type : Progressive
Compression mode : Lossy
Bits/(Pixel*Frame) : 0.231
Stream size : 1.05 GiB (72%)
Writing library : XviD 1.2.1 (UTC 2008-12-04)
Audio #1
ID : 1
Format : AC-3
Format/Info : Audio Coding 3
Mode extension : CM (complete main)
Codec ID : 2000
Duration : 2h 4mn
Bit rate mode : Constant
Bit rate : 256 Kbps
Channel(s) : 2 channels
Channel positions : Front: L R
Sampling rate : 48.0 KHz
Bit depth : 16 bits
Compression mode : Lossy
Stream size : 228 MiB (15%)
Alignment : Split accross interleaves
Interleave, duration : 42 ms (1.00 video frame)
Interleave, preload duration : 500 ms
Audio #2
ID : 2
Format : AC-3
Format/Info : Audio Coding 3
Mode extension : CM (complete main)
Codec ID : 2000
Duration : 2h 4mn
Bit rate mode : Constant
Bit rate : 192 Kbps
Channel(s) : 2 channels
Channel positions : Front: L R
Sampling rate : 48.0 KHz
Bit depth : 16 bits
Compression mode : Lossy
Stream size : 171 MiB (11%)
Alignment : Split accross interleaves
Interleave, duration : 42 ms (1.00 video frame)
Interleave, preload duration : 500 ms

Скриншоты

[Профиль] [ЛС]

Создавать темы 06-Авг-2015 22:31 (спустя 2 месяца 7 дней)

Топик был перенесен из форума Фильмы до 2014 года в форум Фильмы до 2012 года
sergej644
 
Показать сообщения:    

Текущее время: Сегодня 22:06

Часовой пояс: GMT



Вы не можете начинать темы
Вы не можете отвечать на сообщения
Вы не можете редактировать свои сообщения
Вы не можете удалять свои сообщения
Вы не можете голосовать в опросах
Вы не можете прикреплять файлы к сообщениям
Вы не можете скачивать файлы