Оправданная жестокость / A History of Violence (2005) BDRip 1080p от FREEISLAND

 
Автор Сообщение

Russian Mafia ®

Пол:

Стаж: 1 год 8 месяцев

Сообщений: 4253



Награды: 10 (Подробнее)

Mega Seeder 5 (Количество: 1) Mega Seeder 2 (Количество: 1) За внесенный вклад в развитие сайта (Количество: 1)
Торрент-статистика

Создавать темы 31-Авг-2016 16:39

[Цитировать]

Информация о фильме
Название: Оправданная жестокость
Оригинальное название: A History of Violence
Год выхода: 2005
Жанр: триллер, драма, криминал,
Режиссер: Дэвид Кроненберг
Вигго Мортенсен (Tom Stall), Мария Белло (Edie Stall), Эд Харрис (Carl Fogarty), Уильям Хёрт (Richie Cusack), Эштон Холмс (Jack Stall), Питер МакНейл (Sheriff Sam Carney), Стивен МакХэтти (Leland), Грег Брайк (Billy), Кайл Шмид (Bobby Singer), Самела Кэй (Judy Danvers), Джерри Куигли (Mick), Дебора Дрейкфорд (Charlotte)
О фильме:
К владельцу закусочной Тому вламываются двое незнакомцев и требуют деньги, угрожая оружием. Он расправляется с ними и становится местным героем, но на этом дело не заканчивается. Следом появляется некто Фогарти и называет Тома «Джоуи Кьюсаком». Он предлагает Тому-Джоуи поехать с ним в Филадельфию к брату Ричи.
А после отказа Тома берет в заложники его сына Джека. И тогда в Томе действительно «просыпается» Джоуи — профессиональный убийца. Он расправляется с двумя подручными Фогарти, а самого его, направившего пистолет на Тома, убивает из ружья Джек. Жена Тома в шоке: кто же ее муж — мирный владелец кафе или киллер?

MPAA: R - Лицам до 17 лет обязательно присутствие взрослого
Страна: США , Германия
Студия: BenderSpink, Media I! Filmproduktion München & Company
Продолжительность: 01:35:41
Перевод: Профессиональный (дублированный)
Файл
Кодек: H.264
Качество: BDRip 720p
Видео: AVC, 1920x1040 (16:9), 10872 kbps, 23,976 fps, 0,227 bpp
Звук:
русский / AC3 / 5.1 / 48 kHz / 384 kbps / 16 bit
английский / AC3 / 5.1 / 48 kHz / 640 kbps / 16 bit
Субтитры: Russian, english (srt)

MI:

General
Unique ID : 217376434938928296244029234118873661764 (0xA3892DB3D590133994B68B3DDB194144)
Complete name : E:A History of Violence(2005)BDRip-F.HD.mkv
Format : Matroska
Format version : Version 2
File size : 7.95 GiB
Duration : 1h 35mn
Overall bit rate : 11.9 Mbps
Encoded date : UTC 2012-09-09 09:08:53
Writing application : mkvmerge v5.4.0 ('Piper') built on Mar 10 2012 13:34:39
Writing library : libebml v1.2.3 + libmatroska v1.3.0
Video
ID : 1
Format : AVC
Format/Info : Advanced Video Codec
Format profile : High@L4.1
Format settings, CABAC : Yes
Format settings, ReFrames : 4 frames
Codec ID : V_MPEG4/ISO/AVC
Duration : 1h 35mn
Bit rate : 10.9 Mbps
Width : 1 920 pixels
Height : 1 040 pixels
Display aspect ratio : 16:9
Frame rate : 23.976 fps
Color space : YUV
Chroma subsampling : 4:2:0
Bit depth : 8 bits
Scan type : Progressive
Bits/(Pixel*Frame) : 0.227
Stream size : 7.11 GiB (89%)
Writing library : x264 core 125 r2208 d9d2288
Encoding settings : cabac=1 / ref=4 / deblock=1:-1:-1 / analyse=0x3:0x113 / me=umh / subme=10 / psy=1 / psy_rd=1.05:0.15 / mixed_ref=1 / me_range=32 / chroma_me=1 / trellis=2 / 8x8dct=1 / cqm=0 / deadzone=21,11 / fast_pskip=0 / chroma_qp_offset=1 / threads=6 / lookahead_threads=1 / sliced_threads=0 / nr=0 / decimate=1 / interlaced=0 / bluray_compat=0 / constrained_intra=0 / bframes=9 / b_pyramid=2 / b_adapt=2 / b_bias=0 / direct=3 / weightb=1 / open_gop=0 / weightp=2 / keyint=240 / keyint_min=23 / scenecut=40 / intra_refresh=0 / rc=2pass / mbtree=0 / bitrate=10872 / ratetol=1.0 / qcomp=0.65 / qpmin=5 / qpmax=51 / qpstep=4 / cplxblur=20.0 / qblur=0.5 / ip_ratio=1.35 / pb_ratio=1.25 / aq=1:0.95
Language : English
Default : Yes
Forced : No
Color primaries : BT.709-5, BT.1361, IEC 61966-2-4, SMPTE RP177
Transfer characteristics : BT.709-5, BT.1361
Matrix coefficients : BT.709-5, BT.1361, IEC 61966-2-4 709, SMPTE RP177
Audio #1
ID : 2
Format : AC-3
Format/Info : Audio Coding 3
Mode extension : CM (complete main)
Codec ID : A_AC3
Duration : 1h 35mn
Bit rate mode : Constant
Bit rate : 384 Kbps
Channel(s) : 6 channels
Channel positions : Front: L C R, Side: L R, LFE
Sampling rate : 48.0 KHz
Bit depth : 16 bits
Compression mode : Lossy
Stream size : 263 MiB (3%)
Language : Russian
Default : Yes
Forced : No
Audio #2
ID : 3
Format : AC-3
Format/Info : Audio Coding 3
Mode extension : CM (complete main)
Codec ID : A_AC3
Duration : 1h 35mn
Bit rate mode : Constant
Bit rate : 640 Kbps
Channel(s) : 6 channels
Channel positions : Front: L C R, Side: L R, LFE
Sampling rate : 48.0 KHz
Bit depth : 16 bits
Compression mode : Lossy
Stream size : 438 MiB (5%)
Language : English
Default : No
Forced : No
Text #1
ID : 4
Format : UTF-8
Codec ID : S_TEXT/UTF8
Codec ID/Info : UTF-8 Plain Text
Language : Russian
Default : No
Forced : No
Text #2
ID : 5
Format : UTF-8
Codec ID : S_TEXT/UTF8
Codec ID/Info : UTF-8 Plain Text
Language : English
Default : No
Forced : No
Menu
00:00:00.000 : en:Chapter 01
00:06:05.573 : en:Chapter 02
00:10:42.350 : en:Chapter 03
00:12:07.852 : en:Chapter 04
00:21:18.944 : en:Chapter 05
00:25:04.044 : en:Chapter 06
00:29:08.163 : en:Chapter 07
00:38:21.007 : en:Chapter 08
00:44:29.124 : en:Chapter 09
00:48:07.301 : en:Chapter 10
00:52:09.167 : en:Chapter 11
00:58:02.353 : en:Chapter 12
01:01:46.703 : en:Chapter 13
01:10:14.043 : en:Chapter 14
01:15:11.048 : en:Chapter 15
01:27:17.815 : en:Chapter 16
01:31:48.503 : en:Chapter 17
01:35:41.360 : en:Chapter 18

Скриншоты:


[Профиль] [ЛС]
Показать сообщения:    

Текущее время: Сегодня 21:00

Часовой пояс: GMT



Вы не можете начинать темы
Вы не можете отвечать на сообщения
Вы не можете редактировать свои сообщения
Вы не можете удалять свои сообщения
Вы не можете голосовать в опросах
Вы не можете прикреплять файлы к сообщениям
Вы не можете скачивать файлы