Операция «Ы» и другие приключения Шурика (Леонид Гайдай) [1965, СССР, Комедия,Blu ray > DVD9 (Custom)] + Sub Rus,Eng + Original Rus(DTS 5.1;AC3 5.1;AC3 1.0)

 
Автор Сообщение

TorrentFilm ®

Пол:

Стаж: 2 года

Сообщений: 7741



Награды: Нет

Торрент-статистика

Создавать темы 03-Янв-2016 00:04

[Цитировать]

Операция «Ы» и другие приключения Шурика
Страна: СССР
Студия: Мосфильм
Жанр: Комедия
Год выпуска: 1965
Продолжительность: 01:30:41
Перевод: Не требуется
Cубтитры: русские,английские.
Оригинальная аудиодорожка: русский
Режиссер: Леонид Гайдай
В ролях: Александр Демьяненко, Наталья Селезнёва, Алексей Смирнов, Юрий Никулин, Евгений Моргунов, Георгий Вицин, Михаил Пуговкин, Виктор Павлов, Владимир Басов, Рина Зеленая.
Описание:
«Напарник»
Великовозрастный хулиган и пьяница Федя получает пятнадцать суток административного ареста за дебош в автобусе. Федю отправляют работать на строительство жилого дома. На той же стройке подрабатывает Шурик — главный пострадавший в том же происшествии, и прораб назначает Федю к нему напарником. Федя принимается было мстить Шурику за своё унижение, но студент даёт ему неожиданно жёсткий отпор. В финале сражения Шурик проводит с громилой «разъяснительную работу» — порет его розгой, произнеся ставшую крылатой фразу: «Надо, Федя… Надо!».
«Наваждение»
В политехническом институте идёт экзаменационная сессия. В последние часы перед экзаменом Шурик лихорадочно читает конспект лекций в руках незнакомой студентки, «на автопилоте» следуя за ней повсюду, даже к ней домой. Обратить внимание друг на друга и вообще на что-либо вокруг у молодых людей нет времени. После экзамена Шурика знакомят с Лидой — той самой студенткой, и между ними тут же возникает симпатия. Оказавшись в гостях у Лиды, Шурик вдруг понимает, что всё ему здесь, в незнакомой квартире, знакомо — предметы, звуки, запахи… Лида и Шурик проводят научный эксперимент на предмет обнаружения у Шурика парапсихологических способностей. Эксперимент заканчивается нежным поцелуем.
«Операция „Ы“»
Проворовавшийся заведующий торговой базой нанимает троицу жуликов — Труса, Балбеса и Бывалого — чтобы те инсценировали кражу со взломом и спасли его от ревизии. Тщательно организованная и отрепетированная операция срывается из-за непредвиденной случайности: в роковую ночь на охрану социалистической собственности заступает не старушка — божий одуванчик, а отважный Шурик.
Доп. информация: Полная реставрация изображения и звука. Исходные киноматериалы подготовлены Госфильмофондом России. Покадровая цифровая реставрация изображения, ремастеринг звука и авторинг проведены объединением «Крупный план».

Это интересно

* Запуск в производство: 19 мая 1964
* Начало съёмок: 27 июля 1964
* Окончание съёмок: 3 апреля 1965
* Окончание производства: 23 апреля 1965
* Мировая кинофестивальная премьера: 16 августа 1965
* Начало кинопроката в СССР: 16 августа 1965
Подготовка к съёмкам:
* После успеха своего предыдущего фильма «Деловые люди» режиссёр Леонид Гайдай решает снять фильм по оригинальному сценарию на современную тему. Из множества вариантов он выбирает сценарий кинокомедии под названием «Несерьёзные истории», написанный двумя авторами: Яковом Костюковским и Морисом Слободским. Первоначальный вариант состоял из двух новелл, главным героем которых был студент Владик Арьков — интеллигент-очкарик, который попадал в различные комические ситуации и с честью из них выходил. В первой новелле студент перевоспитывал мрачного и невежественного типа, а во второй Владик устраивался репетитором и готовил к поступлению в институт единственного сына родителей — оболтуса Илюшу.
* 25 марта 1964 года во Втором творческом объединении киностудии «Мосфильм» был одобрен литературный сценарий «Несерьёзных историй» и дано «добро» на его запуск в режиссёрскую разработку. Леонид Гайдай вместе с авторами сценария начинает его переработку. В результате сюжет новелл изменился и приобрёл основу, знакомую по фильму. В первой новелле («Напарник») Владик перевоспитывает тунеядца-«пятнадцатисуточника» на стройке, во второй («Весеннее наваждение») — во время экзаменационной сессии влюбляется в девушку Лиду (эту новеллу Гайдай «подсмотрел» в польском журнале «Шпильки»). Поскольку двух новелл для полнометражного фильма было недостаточно, было принято решение придумать третью. Гайдай решает совместить в ней нового героя — Владика — с троицей «Трус, Балбес и Бывалый». После месяца напряжённой работы на свет появилась новелла «Операция „Ы“», в которой Владику предстояло разоблачить расхитителей социалистической собственности.
* С 1 июня 1964 года начались кинопробы актёров на главные и эпизодические роли. Самыми сложными оказались поиски главного героя — студента Владика, которого цензоры попросили заменить другим именем, узрев аналогию с именем Ленина. Гайдай пересмотрел более сотни кандидатов, среди которых были: Олег Видов, Всеволод Абдулов, Виталий Соломин, Евгений Петросян, Сергей Никоненко, Евгений Жариков, Геннадий Корольков, Иван Бортник, Валерий Носик и Александр Збруев. Велись переговоры и с Андреем Мироновым. В итоге художественный совет студии остановился на кандидатуре Валерия Носика, хотя сам режиссёр сомневался. Случайно увидев фотографию молодого актёра Александра Демьяненко, Гайдай отправляется 11 июля в Ленинград на личные переговоры. Оба остались довольны друг другом. Актёр потом вспоминал:
Я как прочёл сценарий «Операции „Ы“», понял, что фильм обречён на успех. Ничего подобного в нашем кино тогда не было.— Александр Демьяненко
* Валерий Носик сыграл в фильме эпизодическую роль студента на экзамене.[1]
* В роли беспокойной девочки Лены из новеллы «Операция „Ы“» снялась дочь поэта Петра Градова — Татьяна.
* Не совсем устраивал Леонида Гайдая и Михаил Пуговкин, которого художественный совет рекомендовал на роль Верзилы в первую новеллу. В итоге Пуговкин сыграл прораба на стройке.
* После фильмов «Пёс Барбос и необычный кросс» и «Самогонщики» Гайдай прекратил творческое сотрудничество с Никитой Богословским. С фильма «Операция „Ы“ и другие приключения Шурика» началась совместная работа с Александром Зацепиным (тогда ещё малоизвестным композитором). Впоследствии ни один известный фильм Леонида Гайдая не обходился без музыки и песен этого композитора.
Съёмки фильма:
* Фильм снимался в Ленинграде, в павильонах киностудии Мосфильм, в районе Свиблова и в районе МГУ (Москва), а также в Баку и Одессе.
* Многие гэги были придуманы во время съёмок самими актёрами. Так, Юрий Никулин придумал сцену, где Шурик «ранит» его героя, Балбеса, рапирой и из его груди хлещет «кровь» — красное вино. Сцена с щёлкающим зубами скелетом была импровизацией Никулина.
* В мае 2012 года в Краснодаре перед зданием Политехнического университета был открыт памятник Шурику и Лиде.
* Памятник Шурику и Лиде есть и в Москве, у входа в здание Московского экономического института в Текстильщиках.
Меню: на русском / частично анимированное / озвученное.
Сэмпл: http://www.sendspace.com/file/ctnw9i
Тип релиза: DVD9 (Custom)
Контейнер: DVD-Video
Видео: MPEG Video,PAL,720*576,VBR,4:3,8243 Кбит/сек,25 Кбит/сек
Аудио: Русский DTS, 6 каналов, 48,0 КГц, 768 Кбит/сек
Аудио 2: Русский AC3,6 каналов, 48,0 КГц, 448 Кбит/сек
Аудио 3: Русский AC3,1 канал, 48,0 КГц, 192 Кбит/сек
Формат субтитров: prerendered (DVD/IDX+SUB)
Источник- Blu-Ray. БОЛЬШОЕ СПАСИБО ЗА НЕГО kingsize87.
MediaInfoОбщее
Полное имя : F:\Сохраненные фильмы\Мои_раздачи_BD_DVD\Операция «Ы» и другие приключения Шурика_BD_DVD9\VIDEO_TS\VIDEO_TS.BUP
Формат : DVD Video
Профиль формата : Menu
Размер файла : 12,0 Кбайт
Режим общего битрейта : Переменный
Видео
Идентификатор : 224 (0xE0)
Формат : MPEG Video
Версия формата : Version 2
Вид битрейта : Переменный
Ширина : 720 пикселей
Высота : 576 пикселей
Соотношение сторон : 4:3
Частота кадров : 25,000 кадров/сек
Стандарт вещания : PAL
Метод сжатия : С потерями
Общее
Полное имя : F:\Сохраненные фильмы\Мои_раздачи_BD_DVD\Операция «Ы» и другие приключения Шурика_BD_DVD9\VIDEO_TS\VIDEO_TS.IFO
Формат : DVD Video
Профиль формата : Menu
Размер файла : 12,0 Кбайт
Режим общего битрейта : Переменный
Видео
Идентификатор : 224 (0xE0)
Формат : MPEG Video
Версия формата : Version 2
Вид битрейта : Переменный
Ширина : 720 пикселей
Высота : 576 пикселей
Соотношение сторон : 4:3
Частота кадров : 25,000 кадров/сек
Стандарт вещания : PAL
Метод сжатия : С потерями
Общее
Полное имя : F:\Сохраненные фильмы\Мои_раздачи_BD_DVD\Операция «Ы» и другие приключения Шурика_BD_DVD9\VIDEO_TS\VIDEO_TS.VOB
Формат : MPEG-PS
Размер файла : 48,0 Кбайт
Продолжительность : 40 мс.
Режим общего битрейта : Переменный
Общий поток : 9830 Кбит/сек
Видео
Идентификатор : 224 (0xE0)
Формат : MPEG Video
Версия формата : Version 2
Профиль формата : Main@Main
Параметр BVOP формата : Нет
Параметр матрицы формата : По умолчанию
Продолжительность : 40 мс.
Вид битрейта : Переменный
Максимальный битрейт : 9000 Кбит/сек
Ширина : 720 пикселей
Высота : 576 пикселей
Соотношение сторон : 4:3
Частота кадров : 25,000 кадров/сек
Стандарт вещания : PAL
Цветовое пространство : YUV
Субдискретизация насыщенности : 4:2:0
Битовая глубина : 8 бит
Тип развёртки : Прогрессивная
Порядок развёртки : Верхнее поле первое
Метод сжатия : С потерями
Основные цвета : BT.470-2 System B, BT.470-2 System G
Характеристики трансфера : BT.470-2 System B, BT.470-2 System G
Коэффициенты матрицы : BT.470-2 System B, BT.470-2 System G
Меню
Общее
Полное имя : F:\Сохраненные фильмы\Мои_раздачи_BD_DVD\Операция «Ы» и другие приключения Шурика_BD_DVD9\VIDEO_TS\VTS_01_0.BUP
Формат : DVD Video
Профиль формата : Program
Размер файла : 58,0 Кбайт
Продолжительность : 1 ч. 30 м.
Режим общего битрейта : Переменный
Общий поток : 87 бит/сек
Видео
Идентификатор : 224 (0xE0)
Формат : MPEG Video
Версия формата : Version 2
Продолжительность : 1 ч. 30 м.
Вид битрейта : Переменный
Ширина : 720 пикселей
Высота : 576 пикселей
Соотношение сторон : 4:3
Частота кадров : 25,000 кадров/сек
Стандарт вещания : PAL
Метод сжатия : С потерями
Аудио #1
Идентификатор : 136 (0x88)
Формат : DTS
Формат/Информация : Digital Theater Systems
Продолжительность : 1 ч. 30 м.
Каналы : 6 каналов
Частота : 48,0 КГц
Метод сжатия : С потерями
Язык : Russian
Аудио #2
Идентификатор : 129 (0x81)
Формат : AC-3
Формат/Информация : Audio Coding 3
Продолжительность : 1 ч. 30 м.
Каналы : 6 каналов
Частота : 48,0 КГц
Метод сжатия : С потерями
Язык : Russian
Аудио #3
Идентификатор : 130 (0x82)
Формат : AC-3
Формат/Информация : Audio Coding 3
Продолжительность : 1 ч. 30 м.
Каналы : 1 канал
Частота : 48,0 КГц
Метод сжатия : С потерями
Язык : Russian
Текст #1
Идентификатор : 32 (0x20)
Формат : RLE
Формат/Информация : Run-length encoding
Битовая глубина : 2 бит
Язык : Russian
Текст #2
Идентификатор : 33 (0x21)
Формат : RLE
Формат/Информация : Run-length encoding
Битовая глубина : 2 бит
Язык : English
Меню
Продолжительность : 1 ч. 30 м.
00:00:00.000 : Chapter 1
00:07:46.800 : Chapter 2
00:15:23.520 : Chapter 3
00:23:06.240 : Chapter 4
00:30:32.360 : Chapter 5
00:38:16.120 : Chapter 6
00:45:23.680 : Chapter 7
00:53:07.200 : Chapter 8
01:00:32.760 : Chapter 9
01:08:04.320 : Chapter 10
01:15:49.120 : Chapter 11
01:23:08.800 : Chapter 12
List (Audio) : 0 / 1 / 2
List (Subtitles 4/3) : 0 / 1
List (Subtitles Wide) : 0 / 1
List (Subtitles Letterbox) : 0 / 1
List (Subtitles Pan&Scan) : 0 / 1
Общее
Полное имя : F:\Сохраненные фильмы\Мои_раздачи_BD_DVD\Операция «Ы» и другие приключения Шурика_BD_DVD9\VIDEO_TS\VTS_01_0.IFO
Формат : DVD Video
Профиль формата : Program
Размер файла : 58,0 Кбайт
Продолжительность : 1 ч. 30 м.
Режим общего битрейта : Переменный
Общий поток : 87 бит/сек
Видео
Идентификатор : 224 (0xE0)
Формат : MPEG Video
Версия формата : Version 2
Продолжительность : 1 ч. 30 м.
Вид битрейта : Переменный
Ширина : 720 пикселей
Высота : 576 пикселей
Соотношение сторон : 4:3
Частота кадров : 25,000 кадров/сек
Стандарт вещания : PAL
Метод сжатия : С потерями
Аудио #1
Идентификатор : 136 (0x88)
Формат : DTS
Формат/Информация : Digital Theater Systems
Продолжительность : 1 ч. 30 м.
Каналы : 6 каналов
Частота : 48,0 КГц
Метод сжатия : С потерями
Язык : Russian
Аудио #2
Идентификатор : 129 (0x81)
Формат : AC-3
Формат/Информация : Audio Coding 3
Продолжительность : 1 ч. 30 м.
Каналы : 6 каналов
Частота : 48,0 КГц
Метод сжатия : С потерями
Язык : Russian
Аудио #3
Идентификатор : 130 (0x82)
Формат : AC-3
Формат/Информация : Audio Coding 3
Продолжительность : 1 ч. 30 м.
Каналы : 1 канал
Частота : 48,0 КГц
Метод сжатия : С потерями
Язык : Russian
Текст #1
Идентификатор : 32 (0x20)
Формат : RLE
Формат/Информация : Run-length encoding
Битовая глубина : 2 бит
Язык : Russian
Текст #2
Идентификатор : 33 (0x21)
Формат : RLE
Формат/Информация : Run-length encoding
Битовая глубина : 2 бит
Язык : English
Меню
Продолжительность : 1 ч. 30 м.
00:00:00.000 : Chapter 1
00:07:46.800 : Chapter 2
00:15:23.520 : Chapter 3
00:23:06.240 : Chapter 4
00:30:32.360 : Chapter 5
00:38:16.120 : Chapter 6
00:45:23.680 : Chapter 7
00:53:07.200 : Chapter 8
01:00:32.760 : Chapter 9
01:08:04.320 : Chapter 10
01:15:49.120 : Chapter 11
01:23:08.800 : Chapter 12
List (Audio) : 0 / 1 / 2
List (Subtitles 4/3) : 0 / 1
List (Subtitles Wide) : 0 / 1
List (Subtitles Letterbox) : 0 / 1
List (Subtitles Pan&Scan) : 0 / 1
Общее
Полное имя : F:\Сохраненные фильмы\Мои_раздачи_BD_DVD\Операция «Ы» и другие приключения Шурика_BD_DVD9\VIDEO_TS\VTS_01_0.VOB
Формат : MPEG-PS
Размер файла : 97,4 Мбайт
Продолжительность : 43 с.
Режим общего битрейта : Переменный
Общий поток : 18,8 Мбит/сек
Видео
Идентификатор : 224 (0xE0)
Формат : MPEG Video
Версия формата : Version 2
Профиль формата : Main@Main
Параметр BVOP формата : Да
Параметр матрицы формата : По умолчанию
Параметр GOP формата : M=3, N=12
Продолжительность : 29 с.
Вид битрейта : Переменный
Битрейт : 18,2 Мбит/сек
Максимальный битрейт : 6500 Кбит/сек
Ширина : 720 пикселей
Высота : 576 пикселей
Соотношение сторон : 16:9
Частота кадров : 25,000 кадров/сек
Стандарт вещания : PAL
Цветовое пространство : YUV
Субдискретизация насыщенности : 4:2:0
Битовая глубина : 8 бит
Тип развёртки : Прогрессивная
Метод сжатия : С потерями
Бит/(Пиксели*Кадры) : 1.753
Размер потока : 63,8 Мбайт (65%)
Основные цвета : BT.470-2 System B, BT.470-2 System G
Характеристики трансфера : BT.470-2 System B, BT.470-2 System G
Коэффициенты матрицы : BT.470-2 System B, BT.470-2 System G
Аудио
Идентификатор : 189 (0xBD)-128 (0x80)
Формат : AC-3
Формат/Информация : Audio Coding 3
Расширение режима : CM (complete main)
Параметр Endianness формата : Big
Режим смешивания : DVD-Video
Продолжительность : 43 с.
Вид битрейта : Постоянный
Битрейт : 224 Кбит/сек
Каналы : 2 канала
Расположение каналов : Front: L R
Частота : 48,0 КГц
Битовая глубина : 16 бит
Метод сжатия : С потерями
Размер потока : 1,16 Мбайт (1%)
Текст #1
Идентификатор : 189 (0xBD)-32 (0x20)
Формат : RLE
Формат/Информация : Run-length encoding
Режим смешивания : DVD-Video
Продолжительность : 288 мс.
Текст #2
Идентификатор : 189 (0xBD)-33 (0x21)
Формат : RLE
Формат/Информация : Run-length encoding
Режим смешивания : DVD-Video
Продолжительность : 288 мс.
Текст #3
Идентификатор : 189 (0xBD)-34 (0x22)
Формат : RLE
Формат/Информация : Run-length encoding
Режим смешивания : DVD-Video
Продолжительность : 288 мс.
Меню
Общее
Полное имя : F:\Сохраненные фильмы\Мои_раздачи_BD_DVD\Операция «Ы» и другие приключения Шурика_BD_DVD9\VIDEO_TS\VTS_01_1.VOB
Формат : MPEG-PS
Размер файла : 1000 Мбайт
Продолжительность : 14 м.
Режим общего битрейта : Переменный
Общий поток : 9834 Кбит/сек
Видео
Идентификатор : 224 (0xE0)
Формат : MPEG Video
Версия формата : Version 2
Профиль формата : Main@Main
Параметр BVOP формата : Да
Параметр матрицы формата : Выборочная
Продолжительность : 14 м.
Вид битрейта : Переменный
Битрейт : 8243 Кбит/сек
Максимальный битрейт : 8450 Кбит/сек
Ширина : 720 пикселей
Высота : 576 пикселей
Соотношение сторон : 4:3
Частота кадров : 25,000 кадров/сек
Стандарт вещания : PAL
Цветовое пространство : YUV
Субдискретизация насыщенности : 4:2:0
Битовая глубина : 8 бит
Тип развёртки : Чересстрочная
Порядок развёртки : Верхнее поле первое
Метод сжатия : С потерями
Бит/(Пиксели*Кадры) : 0.795
Размер потока : 838 Мбайт (84%)
Аудио #1
Идентификатор : 189 (0xBD)-129 (0x81)
Формат : AC-3
Формат/Информация : Audio Coding 3
Расширение режима : CM (complete main)
Параметр Endianness формата : Big
Режим смешивания : DVD-Video
Продолжительность : 14 м.
Вид битрейта : Постоянный
Битрейт : 448 Кбит/сек
Каналы : 6 каналов
Расположение каналов : Front: L C R, Side: L R, LFE
Частота : 48,0 КГц
Битовая глубина : 16 бит
Метод сжатия : С потерями
Размер потока : 45,6 Мбайт (5%)
Аудио #2
Идентификатор : 189 (0xBD)-130 (0x82)
Формат : AC-3
Формат/Информация : Audio Coding 3
Расширение режима : CM (complete main)
Параметр Endianness формата : Big
Режим смешивания : DVD-Video
Продолжительность : 14 м.
Вид битрейта : Постоянный
Битрейт : 192 Кбит/сек
Каналы : 1 канал
Расположение каналов : Front: C
Частота : 48,0 КГц
Битовая глубина : 16 бит
Метод сжатия : С потерями
Размер потока : 19,5 Мбайт (2%)
Аудио #3
Идентификатор : 189 (0xBD)-136 (0x88)
Формат : DTS
Формат/Информация : Digital Theater Systems
Режим смешивания : DVD-Video
Продолжительность : 14 м.
Вид битрейта : Постоянный
Битрейт : 755 Кбит/сек
Каналы : 6 каналов
Расположение каналов : Front: L C R, Side: L R, LFE
Частота : 48,0 КГц
Битовая глубина : 24 бит
Метод сжатия : С потерями
Размер потока : 76,7 Мбайт (8%)
Текст
Идентификатор : 189 (0xBD)-33 (0x21)
Формат : RLE
Формат/Информация : Run-length encoding
Режим смешивания : DVD-Video
Задержка видео : 4 с. 40 мс.
Меню
Общее
Полное имя : F:\Сохраненные фильмы\Мои_раздачи_BD_DVD\Операция «Ы» и другие приключения Шурика_BD_DVD9\VIDEO_TS\VTS_01_2.VOB
Формат : MPEG-PS
Размер файла : 1000 Мбайт
Продолжительность : 14 м.
Режим общего битрейта : Переменный
Общий поток : 9954 Кбит/сек
Видео
Идентификатор : 224 (0xE0)
Формат : MPEG Video
Версия формата : Version 2
Профиль формата : Main@Main
Параметр BVOP формата : Да
Параметр матрицы формата : Выборочная
Параметр GOP формата : M=3, N=15
Продолжительность : 14 м.
Вид битрейта : Переменный
Битрейт : 8362 Кбит/сек
Максимальный битрейт : 8450 Кбит/сек
Ширина : 720 пикселей
Высота : 576 пикселей
Соотношение сторон : 4:3
Частота кадров : 25,000 кадров/сек
Стандарт вещания : PAL
Цветовое пространство : YUV
Субдискретизация насыщенности : 4:2:0
Битовая глубина : 8 бит
Тип развёртки : Чересстрочная
Порядок развёртки : Верхнее поле первое
Метод сжатия : С потерями
Бит/(Пиксели*Кадры) : 0.807
Размер потока : 840 Мбайт (84%)
Аудио #1
Идентификатор : 189 (0xBD)-129 (0x81)
Формат : AC-3
Формат/Информация : Audio Coding 3
Расширение режима : CM (complete main)
Параметр Endianness формата : Big
Режим смешивания : DVD-Video
Продолжительность : 14 м.
Вид битрейта : Постоянный
Битрейт : 448 Кбит/сек
Каналы : 6 каналов
Расположение каналов : Front: L C R, Side: L R, LFE
Частота : 48,0 КГц
Битовая глубина : 16 бит
Метод сжатия : С потерями
Задержка видео : -288 мс.
Размер потока : 45,0 Мбайт (5%)
Аудио #2
Идентификатор : 189 (0xBD)-130 (0x82)
Формат : AC-3
Формат/Информация : Audio Coding 3
Расширение режима : CM (complete main)
Параметр Endianness формата : Big
Режим смешивания : DVD-Video
Продолжительность : 14 м.
Вид битрейта : Постоянный
Битрейт : 192 Кбит/сек
Каналы : 1 канал
Расположение каналов : Front: C
Частота : 48,0 КГц
Битовая глубина : 16 бит
Метод сжатия : С потерями
Задержка видео : -256 мс.
Размер потока : 19,3 Мбайт (2%)
Аудио #3
Идентификатор : 189 (0xBD)-136 (0x88)
Формат : DTS
Формат/Информация : Digital Theater Systems
Режим смешивания : DVD-Video
Продолжительность : 14 м.
Вид битрейта : Постоянный
Битрейт : 755 Кбит/сек
Каналы : 6 каналов
Расположение каналов : Front: L C R, Side: L R, LFE
Частота : 48,0 КГц
Битовая глубина : 24 бит
Метод сжатия : С потерями
Задержка видео : -309 мс.
Размер потока : 75,8 Мбайт (8%)
Меню
Общее
Полное имя : F:\Сохраненные фильмы\Мои_раздачи_BD_DVD\Операция «Ы» и другие приключения Шурика_BD_DVD9\VIDEO_TS\VTS_01_3.VOB
Формат : MPEG-PS
Размер файла : 1000 Мбайт
Продолжительность : 14 м.
Режим общего битрейта : Переменный
Общий поток : 9939 Кбит/сек
Видео
Идентификатор : 224 (0xE0)
Формат : MPEG Video
Версия формата : Version 2
Профиль формата : Main@Main
Параметр BVOP формата : Да
Параметр матрицы формата : Выборочная
Параметр GOP формата : M=3, N=15
Продолжительность : 14 м.
Вид битрейта : Переменный
Битрейт : 8347 Кбит/сек
Максимальный битрейт : 8450 Кбит/сек
Ширина : 720 пикселей
Высота : 576 пикселей
Соотношение сторон : 4:3
Частота кадров : 25,000 кадров/сек
Стандарт вещания : PAL
Цветовое пространство : YUV
Субдискретизация насыщенности : 4:2:0
Битовая глубина : 8 бит
Тип развёртки : Чересстрочная
Порядок развёртки : Верхнее поле первое
Метод сжатия : С потерями
Бит/(Пиксели*Кадры) : 0.805
Размер потока : 840 Мбайт (84%)
Аудио #1
Идентификатор : 189 (0xBD)-129 (0x81)
Формат : AC-3
Формат/Информация : Audio Coding 3
Расширение режима : CM (complete main)
Параметр Endianness формата : Big
Режим смешивания : DVD-Video
Продолжительность : 14 м.
Вид битрейта : Постоянный
Битрейт : 448 Кбит/сек
Каналы : 6 каналов
Расположение каналов : Front: L C R, Side: L R, LFE
Частота : 48,0 КГц
Битовая глубина : 16 бит
Метод сжатия : С потерями
Задержка видео : -304 мс.
Размер потока : 45,1 Мбайт (5%)
Аудио #2
Идентификатор : 189 (0xBD)-130 (0x82)
Формат : AC-3
Формат/Информация : Audio Coding 3
Расширение режима : CM (complete main)
Параметр Endianness формата : Big
Режим смешивания : DVD-Video
Продолжительность : 14 м.
Вид битрейта : Постоянный
Битрейт : 192 Кбит/сек
Каналы : 1 канал
Расположение каналов : Front: C
Частота : 48,0 КГц
Битовая глубина : 16 бит
Метод сжатия : С потерями
Задержка видео : -208 мс.
Размер потока : 19,3 Мбайт (2%)
Аудио #3
Идентификатор : 189 (0xBD)-136 (0x88)
Формат : DTS
Формат/Информация : Digital Theater Systems
Режим смешивания : DVD-Video
Продолжительность : 14 м.
Вид битрейта : Постоянный
Битрейт : 755 Кбит/сек
Каналы : 6 каналов
Расположение каналов : Front: L C R, Side: L R, LFE
Частота : 48,0 КГц
Битовая глубина : 24 бит
Метод сжатия : С потерями
Задержка видео : -304 мс.
Размер потока : 75,9 Мбайт (8%)
Меню
Общее
Полное имя : F:\Сохраненные фильмы\Мои_раздачи_BD_DVD\Операция «Ы» и другие приключения Шурика_BD_DVD9\VIDEO_TS\VTS_01_4.VOB
Формат : MPEG-PS
Размер файла : 1000 Мбайт
Продолжительность : 14 м.
Режим общего битрейта : Переменный
Общий поток : 9948 Кбит/сек
Видео
Идентификатор : 224 (0xE0)
Формат : MPEG Video
Версия формата : Version 2
Профиль формата : Main@Main
Параметр BVOP формата : Да
Параметр матрицы формата : Выборочная
Параметр GOP формата : M=3, N=15
Продолжительность : 14 м.
Вид битрейта : Переменный
Битрейт : 8355 Кбит/сек
Максимальный битрейт : 8450 Кбит/сек
Ширина : 720 пикселей
Высота : 576 пикселей
Соотношение сторон : 4:3
Частота кадров : 25,000 кадров/сек
Стандарт вещания : PAL
Цветовое пространство : YUV
Субдискретизация насыщенности : 4:2:0
Битовая глубина : 8 бит
Тип развёртки : Чересстрочная
Порядок развёртки : Верхнее поле первое
Метод сжатия : С потерями
Бит/(Пиксели*Кадры) : 0.806
Размер потока : 840 Мбайт (84%)
Аудио #1
Идентификатор : 189 (0xBD)-129 (0x81)
Формат : AC-3
Формат/Информация : Audio Coding 3
Расширение режима : CM (complete main)
Параметр Endianness формата : Big
Режим смешивания : DVD-Video
Продолжительность : 14 м.
Вид битрейта : Постоянный
Битрейт : 448 Кбит/сек
Каналы : 6 каналов
Расположение каналов : Front: L C R, Side: L R, LFE
Частота : 48,0 КГц
Битовая глубина : 16 бит
Метод сжатия : С потерями
Задержка видео : -288 мс.
Размер потока : 45,0 Мбайт (5%)
Аудио #2
Идентификатор : 189 (0xBD)-130 (0x82)
Формат : AC-3
Формат/Информация : Audio Coding 3
Расширение режима : CM (complete main)
Параметр Endianness формата : Big
Режим смешивания : DVD-Video
Продолжительность : 14 м.
Вид битрейта : Постоянный
Битрейт : 192 Кбит/сек
Каналы : 1 канал
Расположение каналов : Front: C
Частота : 48,0 КГц
Битовая глубина : 16 бит
Метод сжатия : С потерями
Задержка видео : -256 мс.
Размер потока : 19,3 Мбайт (2%)
Аудио #3
Идентификатор : 189 (0xBD)-136 (0x88)
Формат : DTS
Формат/Информация : Digital Theater Systems
Режим смешивания : DVD-Video
Продолжительность : 14 м.
Вид битрейта : Постоянный
Битрейт : 755 Кбит/сек
Каналы : 6 каналов
Расположение каналов : Front: L C R, Side: L R, LFE
Частота : 48,0 КГц
Битовая глубина : 24 бит
Метод сжатия : С потерями
Задержка видео : -309 мс.
Размер потока : 75,8 Мбайт (8%)
Текст #1
Идентификатор : 189 (0xBD)-32 (0x20)
Формат : RLE
Формат/Информация : Run-length encoding
Режим смешивания : DVD-Video
Продолжительность : 13 м.
Задержка видео : 1 с. 240 мс.
Текст #2
Идентификатор : 189 (0xBD)-33 (0x21)
Формат : RLE
Формат/Информация : Run-length encoding
Режим смешивания : DVD-Video
Продолжительность : 13 м.
Задержка видео : 2 с. 160 мс.
Меню
Общее
Полное имя : F:\Сохраненные фильмы\Мои_раздачи_BD_DVD\Операция «Ы» и другие приключения Шурика_BD_DVD9\VIDEO_TS\VTS_01_5.VOB
Формат : MPEG-PS
Размер файла : 1000 Мбайт
Продолжительность : 14 м.
Режим общего битрейта : Переменный
Общий поток : 9910 Кбит/сек
Видео
Идентификатор : 224 (0xE0)
Формат : MPEG Video
Версия формата : Version 2
Профиль формата : Main@Main
Параметр BVOP формата : Да
Параметр матрицы формата : Выборочная
Параметр GOP формата : M=3, N=15
Продолжительность : 14 м.
Вид битрейта : Переменный
Битрейт : 8318 Кбит/сек
Максимальный битрейт : 8450 Кбит/сек
Ширина : 720 пикселей
Высота : 576 пикселей
Соотношение сторон : 4:3
Частота кадров : 25,000 кадров/сек
Стандарт вещания : PAL
Цветовое пространство : YUV
Субдискретизация насыщенности : 4:2:0
Битовая глубина : 8 бит
Тип развёртки : Чересстрочная
Порядок развёртки : Верхнее поле первое
Метод сжатия : С потерями
Бит/(Пиксели*Кадры) : 0.802
Размер потока : 840 Мбайт (84%)
Аудио #1
Идентификатор : 189 (0xBD)-129 (0x81)
Формат : AC-3
Формат/Информация : Audio Coding 3
Расширение режима : CM (complete main)
Параметр Endianness формата : Big
Режим смешивания : DVD-Video
Продолжительность : 14 м.
Вид битрейта : Постоянный
Битрейт : 448 Кбит/сек
Каналы : 6 каналов
Расположение каналов : Front: L C R, Side: L R, LFE
Частота : 48,0 КГц
Битовая глубина : 16 бит
Метод сжатия : С потерями
Задержка видео : -312 мс.
Размер потока : 45,2 Мбайт (5%)
Аудио #2
Идентификатор : 189 (0xBD)-130 (0x82)
Формат : AC-3
Формат/Информация : Audio Coding 3
Расширение режима : CM (complete main)
Параметр Endianness формата : Big
Режим смешивания : DVD-Video
Продолжительность : 14 м.
Вид битрейта : Постоянный
Битрейт : 192 Кбит/сек
Каналы : 1 канал
Расположение каналов : Front: C
Частота : 48,0 КГц
Битовая глубина : 16 бит
Метод сжатия : С потерями
Задержка видео : -216 мс.
Размер потока : 19,4 Мбайт (2%)
Аудио #3
Идентификатор : 189 (0xBD)-136 (0x88)
Формат : DTS
Формат/Информация : Digital Theater Systems
Режим смешивания : DVD-Video
Продолжительность : 14 м.
Вид битрейта : Постоянный
Битрейт : 755 Кбит/сек
Каналы : 6 каналов
Расположение каналов : Front: L C R, Side: L R, LFE
Частота : 48,0 КГц
Битовая глубина : 24 бит
Метод сжатия : С потерями
Задержка видео : -323 мс.
Размер потока : 76,2 Мбайт (8%)
Текст #1
Идентификатор : 189 (0xBD)-32 (0x20)
Формат : RLE
Формат/Информация : Run-length encoding
Режим смешивания : DVD-Video
Продолжительность : 13 м.
Задержка видео : 3 с. 840 мс.
Текст #2
Идентификатор : 189 (0xBD)-33 (0x21)
Формат : RLE
Формат/Информация : Run-length encoding
Режим смешивания : DVD-Video
Меню
Общее
Полное имя : F:\Сохраненные фильмы\Мои_раздачи_BD_DVD\Операция «Ы» и другие приключения Шурика_BD_DVD9\VIDEO_TS\VTS_01_6.VOB
Формат : MPEG-PS
Размер файла : 1000 Мбайт
Продолжительность : 14 м.
Режим общего битрейта : Переменный
Общий поток : 9894 Кбит/сек
Видео
Идентификатор : 224 (0xE0)
Формат : MPEG Video
Версия формата : Version 2
Профиль формата : Main@Main
Параметр BVOP формата : Да
Параметр матрицы формата : Выборочная
Параметр GOP формата : M=3, N=15
Продолжительность : 14 м.
Вид битрейта : Переменный
Битрейт : 8303 Кбит/сек
Максимальный битрейт : 8450 Кбит/сек
Ширина : 720 пикселей
Высота : 576 пикселей
Соотношение сторон : 4:3
Частота кадров : 25,000 кадров/сек
Стандарт вещания : PAL
Цветовое пространство : YUV
Субдискретизация насыщенности : 4:2:0
Битовая глубина : 8 бит
Тип развёртки : Чересстрочная
Порядок развёртки : Верхнее поле первое
Метод сжатия : С потерями
Бит/(Пиксели*Кадры) : 0.801
Размер потока : 839 Мбайт (84%)
Аудио #1
Идентификатор : 189 (0xBD)-129 (0x81)
Формат : AC-3
Формат/Информация : Audio Coding 3
Расширение режима : CM (complete main)
Параметр Endianness формата : Big
Режим смешивания : DVD-Video
Продолжительность : 14 м.
Вид битрейта : Постоянный
Битрейт : 448 Кбит/сек
Каналы : 6 каналов
Расположение каналов : Front: L C R, Side: L R, LFE
Частота : 48,0 КГц
Битовая глубина : 16 бит
Метод сжатия : С потерями
Задержка видео : -288 мс.
Размер потока : 45,3 Мбайт (5%)
Аудио #2
Идентификатор : 189 (0xBD)-130 (0x82)
Формат : AC-3
Формат/Информация : Audio Coding 3
Расширение режима : CM (complete main)
Параметр Endianness формата : Big
Режим смешивания : DVD-Video
Продолжительность : 14 м.
Вид битрейта : Постоянный
Битрейт : 192 Кбит/сек
Каналы : 1 канал
Расположение каналов : Front: C
Частота : 48,0 КГц
Битовая глубина : 16 бит
Метод сжатия : С потерями
Задержка видео : -256 мс.
Размер потока : 19,4 Мбайт (2%)
Аудио #3
Идентификатор : 189 (0xBD)-136 (0x88)
Формат : DTS
Формат/Информация : Digital Theater Systems
Режим смешивания : DVD-Video
Продолжительность : 14 м.
Вид битрейта : Постоянный
Битрейт : 755 Кбит/сек
Каналы : 6 каналов
Расположение каналов : Front: L C R, Side: L R, LFE
Частота : 48,0 КГц
Битовая глубина : 24 бит
Метод сжатия : С потерями
Задержка видео : -299 мс.
Размер потока : 76,3 Мбайт (8%)
Текст
Идентификатор : 189 (0xBD)-33 (0x21)
Формат : RLE
Формат/Информация : Run-length encoding
Режим смешивания : DVD-Video
Задержка видео : 3 с. 40 мс.
Меню
Общее
Полное имя : F:\Сохраненные фильмы\Мои_раздачи_BD_DVD\Операция «Ы» и другие приключения Шурика_BD_DVD9\VIDEO_TS\VTS_01_7.VOB
Формат : MPEG-PS
Размер файла : 429 Мбайт
Продолжительность : 6 м. 3 с.
Режим общего битрейта : Переменный
Общий поток : 9899 Кбит/сек
Видео
Идентификатор : 224 (0xE0)
Формат : MPEG Video
Версия формата : Version 2
Профиль формата : Main@Main
Параметр BVOP формата : Да
Параметр матрицы формата : Выборочная
Параметр GOP формата : M=3, N=15
Продолжительность : 6 м. 3 с.
Вид битрейта : Переменный
Битрейт : 8307 Кбит/сек
Максимальный битрейт : 8450 Кбит/сек
Ширина : 720 пикселей
Высота : 576 пикселей
Соотношение сторон : 4:3
Частота кадров : 25,000 кадров/сек
Стандарт вещания : PAL
Цветовое пространство : YUV
Субдискретизация насыщенности : 4:2:0
Битовая глубина : 8 бит
Тип развёртки : Чересстрочная
Порядок развёртки : Верхнее поле первое
Метод сжатия : С потерями
Бит/(Пиксели*Кадры) : 0.801
Размер потока : 360 Мбайт (84%)
Аудио #1
Идентификатор : 189 (0xBD)-129 (0x81)
Формат : AC-3
Формат/Информация : Audio Coding 3
Расширение режима : CM (complete main)
Параметр Endianness формата : Big
Режим смешивания : DVD-Video
Продолжительность : 6 м. 2 с.
Вид битрейта : Постоянный
Битрейт : 448 Кбит/сек
Каналы : 6 каналов
Расположение каналов : Front: L C R, Side: L R, LFE
Частота : 48,0 КГц
Битовая глубина : 16 бит
Метод сжатия : С потерями
Задержка видео : -312 мс.
Размер потока : 19,4 Мбайт (5%)
Аудио #2
Идентификатор : 189 (0xBD)-130 (0x82)
Формат : AC-3
Формат/Информация : Audio Coding 3
Расширение режима : CM (complete main)
Параметр Endianness формата : Big
Режим смешивания : DVD-Video
Продолжительность : 6 м. 2 с.
Вид битрейта : Постоянный
Битрейт : 192 Кбит/сек
Каналы : 1 канал
Расположение каналов : Front: C
Частота : 48,0 КГц
Битовая глубина : 16 бит
Метод сжатия : С потерями
Задержка видео : -248 мс.
Размер потока : 8,30 Мбайт (2%)
Аудио #3
Идентификатор : 189 (0xBD)-136 (0x88)
Формат : DTS
Формат/Информация : Digital Theater Systems
Режим смешивания : DVD-Video
Продолжительность : 6 м. 2 с.
Вид битрейта : Постоянный
Битрейт : 755 Кбит/сек
Каналы : 6 каналов
Расположение каналов : Front: L C R, Side: L R, LFE
Частота : 48,0 КГц
Битовая глубина : 24 бит
Метод сжатия : С потерями
Задержка видео : -312 мс.
Размер потока : 32,6 Мбайт (8%)

Используемый софт

Видео
ProCoder 3 - конвертация видео
AviSynth - обработка видео
DGDecodeNV - индексирование
Программы для разборки ремукса
tsMuxeR - разборка ремукса
Работа со звуком
TranzcodeGUI - извлечение WAV
Adobe Audition - обработка звуковых дорожек
Sonic Foundry Soft Encode - конвертация из формата WAV в AC3
Работа с меню и реавторинг
DVD-lab PRO 2 - реавторинг диска
MuxMan - проверка соответствия стандарту DVD(не завышен ли битрейт диска)
Adobe Photoshop - редактирование меню
СкриптLoadPlugin("C:\Program Files\Progr_convert_BD_DVD\DGDecodeNV\DGDecodeNV.dll")
DGSource("E:\Convertirov_ BD_DVD\Operacia _Ы\temp\DGIndexNV\Operacia _Ы.dgi") #если в исходнике отсутствуют артефакты
LoadPlugin("C:\Program Files\Progr_convert_BD_DVD\AutoYUY2\AutoYUY2.dll") #более медленный, но качественный аналог ConvertToYUY2()
AutoYUY2()
LoadPlugin("C:\Program Files\Progr_convert_BD_DVD\ColorMatrix\ColorMatrix.dll")
ColorMatrix(mode="Rec.709->Rec.601", inputFR=false, clamp=0) #корректировка цветовой шкалы, если проверка показывает 16-235
Crop(240,0,-240,0) #Обрезаем по бокам полосы
Lanczos4Resize(720, 576) #Уменьшаем до разрешения ПАЛа
AssumeFPS(25) #Частота кадров ПАЛа

Скриншоты программ и настроек

Точка перехода

Скриншоты меню

Скриншоты

Фильм записан на диск Verbatim DVD+R DL программой ImgBurn по инструкции.
Работоспособность проверена на стационарном плеере SONY DVP-NS330 и рекордере BBK DW 9955K.
[Профиль] [ЛС]
Кто просматривает тему:

Форум Тема Автор Размер
Rock (Rock Opera/Зонг-опера) Орфей и Эвридика (Александр Журбин) - 2003, FLAC (image+.cue+scan), lossless Garik014 545 MB
BBC BBC: Операция Стоунхендж. Тайна, скрытая под камнями / Operation Stonehenge: What Lies Beneath [серии 1-2 из 2] (Джереми Тернер / Jeremy Turner) [2014 г., Документально-постановочный, история,... skorpionN 3.27 GB
Боевики, детективы, триллеры Акунин Борис - Смерть на брудершафт. Фильма 9. Операция «Транзит» [Сергей Чонишвили, 2013 г., 256 kbps, MP3] sergej644 242 MB
Разная литература Антонов В.С., Атаманенко И.Г. - 100 великих операций спецслужб (2016) FB2, RTF достали все 235 MB
Компьютерная литература (Программирование) Быстрый старт - Никитин Н.А. - Осваиваем ноутбук с операционной системой Windows 7 [2010, PDF, RUS] TorrentFilm 62 MB
Фантастика, фэнтези Вадим Львов | Оперативное вмешательство (2015) [FB2] достали все 1 MB
Разная литература Валентин Григорьев | Жизнь без боли в спине. Лечение сколиоза, остеопороза, остеохондроза, межпозвонковой грыжи без операции (2015) [FB2] достали все 16 MB
Фантастика, фэнтези Гарри Гаррисон - Собрание сочинений (178 книг) [1951-2015, Боевая фантастика, Космоопера, FB2] Garik014 80 MB
Показать сообщения:    

Текущее время: Сегодня 00:35

Часовой пояс: GMT



Вы не можете начинать темы
Вы не можете отвечать на сообщения
Вы не можете редактировать свои сообщения
Вы не можете удалять свои сообщения
Вы не можете голосовать в опросах
Вы не можете прикреплять файлы к сообщениям
Вы не можете скачивать файлы