Операция Сатана [Серии 1-8 из 8] (2018) WEB-DLRip

 
Автор Сообщение

Pensioner ®

Стаж: 1 год 10 месяцев

Сообщений: 377

Откуда: Казахстан



Награды: 1 (Подробнее)

За внесенный вклад в развитие сайта (Количество: 1)
Торрент-статистика

Создавать темы 12-Окт-2018 14:41

[Цитировать]

Оригинальное название: Операция «Сатана»
Год выпуска: 2018
Жанр: Детектив, криминал
Выпущено: Россия, Русский проект
Режиссер: Юрий Мороз
В ролях: Андрей Смоляков, Марина Александрова, Даниэла Стоянович, Владимир Юматов, Сергей Угрюмов, Луиза Мосендз, Яна Сексте, Владимир Ильин, Виктория Исакова, Александр Домогаров, Сергей Колтаков, Игорь Гордин, Александра Ребенок, Александр Голубев, Софья Евстигнеева, Лариса Удовиченко, Юрий Чурсин, Алексей Бардуков, Филипп Гуревич, Дмитрий Куличков, Юрий Тарасов
О фильме: 1975 год - холодная война между СССР и США, гонка вооружений. Напряженно работают физики-ядерщики. В Советском Союзе становится очевидной утечка секретной информации о разработке ракеты «Сатана». Казалось бы, как может быть связан майор милиции с разведкой спецслужб? Однако именно он, Иван Петрович, уволенный из МУРа, трудящийся обычным участковым, оказывает неоценимую помощь КГБ в поимке американского шпиона.
Файл:
Качество: WEB-DLRip
Видео: XviD, ~ 1500 Кбит/с, 720x400
Аудио: AC3, 2 ch, 192 Кбит/с
Продолжительность: 8 x ~ 00:50:00
Язык: Русский
Доп. ин.-ция

MediaInfo:

Общее
Полное имя : D:\моё видио\Satana.2018.WEB-DLRip.Files-x\01.Satana.2018.WEB-DLRip.Files-x.avi
Формат : AVI
Формат/Информация : Audio Video Interleave
Размер файла : 599 Мбайт
Продолжительность : 49 м.
Общий поток : 1697 Кбит/сек
Программа кодирования : VirtualDubMod 1.5.10.3 | www.virtualdub-fr.org || (build 2550/release)
Библиотека кодирования : VirtualDubMod build 2550/release
Видео
Идентификатор : 0
Формат : MPEG-4 Visual
Профиль формата : Advanced Simple@L5
Параметр BVOP формата : 1
Параметр QPel формата : Нет
Параметр GMC формата : Без точки перехода
Параметр матрицы формата : Выборочная
Идентификатор кодека : XVID
Идентификатор кодека/Подсказка : XviD
Продолжительность : 49 м.
Битрейт : 1495 Кбит/сек
Ширина : 720 пикселей
Высота : 400 пикселей
Соотношение сторон : 16:9
Частота кадров : 25,000 кадров/сек
Цветовое пространство : YUV
Субдискретизация насыщенности : 4:2:0
Битовая глубина : 8 бит
Тип развёртки : Прогрессивная
Метод сжатия : С потерями
Бит/(Пиксели*Кадры) : 0.208
Размер потока : 528 Мбайт (88%)
Библиотека кодирования : XviD 73
Аудио
Идентификатор : 1
Формат : AC-3
Формат/Информация : Audio Coding 3
Расширение режима : CM (complete main)
Параметр Endianness формата : Big
Идентификатор кодека : 2000
Продолжительность : 49 м.
Вид битрейта : Постоянный
Битрейт : 192 Кбит/сек
Каналы : 2 канала
Расположение каналов : Front: L R
Частота : 48,0 КГц
Битовая глубина : 16 бит
Метод сжатия : С потерями
Размер потока : 67,8 Мбайт (11%)
Выравнивание : Разделение по промежуткам
Продолжительность промежутка : 40 мс. (1,00 видеокадр)
Время предзагрузки промежутка : 500 мс.

Скриншоты

Добавлены 1-8 серии.
Сериал залит полностью.
[Профиль] [ЛС]
Кто просматривает тему:

Форум Тема Автор Размер
Rock (Rock Opera/Зонг-опера) Орфей и Эвридика (Александр Журбин) - 2003, FLAC (image+.cue+scan), lossless Garik014 545 MB
Фильмы 2016 года 2307: Операция «Андроид» / 2307: Winter's Dream (2016) HDRip | iTunes BOSS 1.46 GB
BBC BBC: Операция Стоунхендж. Тайна, скрытая под камнями / Operation Stonehenge: What Lies Beneath [серии 1-2 из 2] (Джереми Тернер / Jeremy Turner) [2014 г., Документально-постановочный, история,... skorpionN 3.27 GB
Боевики, детективы, триллеры Акунин Борис - Смерть на брудершафт. Фильма 9. Операция «Транзит» [Сергей Чонишвили, 2013 г., 256 kbps, MP3] sergej644 242 MB
Разная литература Антонов В.С., Атаманенко И.Г. - 100 великих операций спецслужб (2016) FB2, RTF достали все 235 MB
Компьютерная литература (Программирование) Быстрый старт - Никитин Н.А. - Осваиваем ноутбук с операционной системой Windows 7 [2010, PDF, RUS] TorrentFilm 62 MB
Фантастика, фэнтези Вадим Львов | Оперативное вмешательство (2015) [FB2] достали все 1 MB
Разная литература Валентин Григорьев | Жизнь без боли в спине. Лечение сколиоза, остеопороза, остеохондроза, межпозвонковой грыжи без операции (2015) [FB2] достали все 16 MB
Показать сообщения:    

Текущее время: Сегодня 00:48

Часовой пояс: GMT



Вы не можете начинать темы
Вы не можете отвечать на сообщения
Вы не можете редактировать свои сообщения
Вы не можете удалять свои сообщения
Вы не можете голосовать в опросах
Вы не можете прикреплять файлы к сообщениям
Вы не можете скачивать файлы