Операция «Мёртвый снег» 2 / Død Snø 2 (2014) BDRip 720p | Лицензия

 
Автор Сообщение

sergej644 ®

Пол:

Стаж: 4 года 11 месяцев

Сообщений: 6042

Откуда: Soviet Union



Награды: Нет

Торрент-статистика

Создавать темы 31-Янв-2015 23:13

[Цитировать]

Информация о фильме
Название: Операция «Мёртвый снег» 2
Оригинальное название: Død Snø 2
Год выхода: 2014
Жанр: Ужасы, боевик, чёрная комедия
Страна: Норвегия
Продолжительность: 01:40:41
Перевод: Профессиональный (многоголосый закадровый) [лицензия R5]
Авторский (одноголосый закадровый) С. Черкасов (RussianGuy27)
Субтитры: Английские, норвежские
Режиссер: Томми Виркола / Tommy Wirkola
В ролях: Вегар Хоел, Орхан Гамст, Мартин Старр, Жослин ДеБоэр, Ингрид Хаас, Стиг Фроде Хенриксен, Кристиан Фидженшоу, Амрита Ачария, Дерек Мирс, Кристоффер Йонер
О фильме:
После встречи в горах с нацистами-зомби лишь Мартину удалось добраться до цивилизации, в то время как все его приятели погибли. Однако парень забыл о маленьком подарке, который он получил от своей возлюбленной Ханны, — золотой монете, которую та нашла в старом доме. Эта монета — часть клада, который подчиненные штандартенфюрера Герцога собирали для своего фюрера. Но даже после смерти немцы не намерены никому отдавать свои сокровища…

Файл
Кодек: AVC (x264)
Качество: BD 720p
Видео: 1280x534 (2,40:1) at 24,000 fps, 4920 Кbps, 0.300 bpp
Звук:
Аудио 1: AC3; 448 Kbps; CBR; 6 ch; 48 khz | Многоголосый |
Аудио 2: AC3; 640 Kbps; CBR; 6 ch; 48 khz | AVO - Черкасов (RussianGuy27) |
Аудио 3: AC3; 640 Kbps; CBR; 6 ch; 48 khz | Норвежский |
Семпл

mediainfo

General
Format : Matroska
File size : 4.77 GiB
Duration : 1h 40mn
Overall bit rate : 6 783 Kbps
Movie name : Dead Snow 2 [720p] [2014] MVO, AVO
Encoded date : UTC 2014-08-09 06:09:47
Writing application : mkvmerge v2.9.7 ('Tenderness') built on Jul 1 2009 18:43:35
Writing library : libebml v0.7.7 + libmatroska v0.8.1
Video
ID : 1
Format : AVC
Format/Info : Advanced Video Codec
Format profile : High@L4.1
Format settings, CABAC : Yes
Format settings, ReFrames : 12 frames
Muxing mode : Container profile=Unknown@4.1
Codec ID : V_MPEG4/ISO/AVC
Duration : 1h 40mn
Bit rate : 4 920 Kbps
Width : 1 280 pixels
Height : 534 pixels
Display aspect ratio : 2.35:1
Frame rate : 24.000 fps
Resolution : 24 bits
Colorimetry : 4:2:0
Scan type : Progressive
Bits/(Pixel*Frame) : 0.300
Stream size : 3.46 GiB (73%)
Writing library : x264 core 142 r2409+42 04be48a tMod [8-bit@all X86_64]
Encoding settings : cabac=1 / ref=12 / deblock=1:-3:-3 / analyse=0x3:0x113 / me=umh / subme=11 / psy=1 / fade_compensate=0.00 / psy_rd=1.05:0.00 / mixed_ref=1 / me_range=32 / chroma_me=1 / trellis=2 / 8x8dct=1 / cqm=0 / deadzone=21,11 / fast_pskip=0 / chroma_qp_offset=-2 / threads=6 / lookahead_threads=1 / sliced_threads=0 / nr=0 / decimate=0 / interlaced=0 / bluray_compat=0 / constrained_intra=0 / fgo=0 / bframes=8 / b_pyramid=2 / b_adapt=2 / b_bias=0 / direct=3 / weightb=1 / open_gop=0 / weightp=2 / keyint=250 / keyint_min=24 / scenecut=40 / intra_refresh=0 / rc_lookahead=50 / rc=crf / mbtree=0 / crf=16.0000 / qcomp=0.65 / qpmin=0:0:0 / qpmax=69:69:69 / qpstep=4 / vbv_maxrate=50000 / vbv_bufsize=62500 / crf_max=0.0 / nal_hrd=none / filler=0 / ip_ratio=1.40 / pb_ratio=1.10 / aq=4:0.75 / aq-sensitivity=10.00 / aq-factor=1.00:1.00:1.00 / aq2=0 / aq3=0 / zones=3252,3270,crf=12/4578,4599,crf=12/4620,4668,crf=12/4693,4722,crf=12/5345,5399,crf=12/5427,5439,crf=12/5458,5469,crf=12/6712,6729,crf=12/10928,11054,crf=12/11112,11162,crf=12/11249,11300,crf=12/11430,11480,crf=12/12210,12256,crf=12/12872,12903,crf=12/13107,13159,crf=12/13993,14040,crf=12/14367,14401,crf=12/15006,15042,crf=12/15105,15151,crf=12/15858,15894,crf=12/16060,16081,crf=12/16195,16256,crf=12/16295,16343,crf=12/16561,16573,crf=12/16621,16757,crf=12/16774,17241,crf=12/17452,17487,crf=12/19171,19324,crf=12/21048,21133,crf=12/21483,21526,crf=12/21672,21738,crf=12/24519,24598,crf=12/25220,25341,crf=12/25393,25428,crf=12/25555,25954,crf=12/27785,28092,crf=12/28288,28372,crf=12/28727,28767,crf=12/28825,28872,crf=12/28963,29068,crf=12/29450,29490,crf=12/29556,29657,crf=12/29753,29776,crf=12/29823,29875,crf=12/29934,29962,crf=12/30004,30065,crf=12/30122,30204,crf=12/30253,30306,crf=12/30417,30489,crf=12/30543,30609,crf=12/30831,30902,crf=12/30960,31049,crf=12/31050,31305,crf=12/31348,31488,crf=12/32188,32293,crf=12/32344,32379,crf=12/32439,32850,crf=12/32961,33136,crf=12/33320,33373,crf=12/41515,41742,crf=12/42021,44141,crf=12/48245,48823,crf=12/49187,50713,crf=12/51462,52274,crf=12/52559,52591,crf=12/52686,53666,crf=12/53798,54503,crf=12/56355,56784,crf=12/57258,57302,crf=12/58320,58419,crf=12/59202,59283,crf=12/72517,72623,crf=12/72760,72949,crf=12/86276,86494,crf=12/91369,91421,crf=12/92807,93651,crf=12/101118,102048,crf=12/103328,103495,crf=12/103873,103954,crf=12/105296,105337,crf=12/105975,106016,crf=12/106261,106415,crf=12/106642,106697,crf=12/109967,109981,crf=12/114235,114339,crf=12/114555,114612,crf=12/114741,114813,crf=12/119717,120287,crf=12/131899,132380,crf=12
Language : Norwegian
Audio #1
ID : 2
Format : AC-3
Format/Info : Audio Coding 3
Codec ID : A_AC3
Duration : 1h 40mn
Bit rate mode : Constant
Bit rate : 448 Kbps
Channel(s) : 6 channels
Channel positions : Front: L C R, Surround: L R, LFE
Sampling rate : 48.0 KHz
Stream size : 323 MiB (7%)
Title : MVO
Language : Russian
Audio #2
ID : 3
Format : AC-3
Format/Info : Audio Coding 3
Codec ID : A_AC3
Duration : 1h 40mn
Bit rate mode : Constant
Bit rate : 640 Kbps
Channel(s) : 6 channels
Channel positions : Front: L C R, Surround: L R, LFE
Sampling rate : 48.0 KHz
Stream size : 461 MiB (9%)
Title : AVO S.Cherkasov
Language : Russian
Audio #3
ID : 4
Format : AC-3
Format/Info : Audio Coding 3
Codec ID : A_AC3
Duration : 1h 40mn
Bit rate mode : Constant
Bit rate : 640 Kbps
Channel(s) : 6 channels
Channel positions : Front: L C R, Surround: L R, LFE
Sampling rate : 48.0 KHz
Stream size : 461 MiB (9%)
Language : Norwegian
Text #1
ID : 5
Format : UTF-8
Codec ID : S_TEXT/UTF8
Codec ID/Info : UTF-8 Plain Text
Language : English
Text #2
ID : 6
Format : UTF-8
Codec ID : S_TEXT/UTF8
Codec ID/Info : UTF-8 Plain Text
Language : Norwegian
Menu
00:00:00.000 : en:
00:12:19.375 : en:
00:19:38.666 : en:
00:30:39.250 : en:
00:39:56.583 : en:
00:50:01.208 : en:
01:01:39.708 : en:
01:09:42.083 : en:
01:18:11.375 : en:
01:23:02.500 : en:
01:29:31.416 : en:
01:36:58.208 : en:

Скриншоты

[Профиль] [ЛС]
Кто просматривает тему:

Форум Тема Автор Размер
Rock (Rock Opera/Зонг-опера) Орфей и Эвридика (Александр Журбин) - 2003, FLAC (image+.cue+scan), lossless Garik014 545 MB
BBC BBC: Операция Стоунхендж. Тайна, скрытая под камнями / Operation Stonehenge: What Lies Beneath [серии 1-2 из 2] (Джереми Тернер / Jeremy Turner) [2014 г., Документально-постановочный, история,... skorpionN 3.27 GB
Боевики, детективы, триллеры Акунин Борис - Смерть на брудершафт. Фильма 9. Операция «Транзит» [Сергей Чонишвили, 2013 г., 256 kbps, MP3] sergej644 242 MB
Разная литература Антонов В.С., Атаманенко И.Г. - 100 великих операций спецслужб (2016) FB2, RTF достали все 235 MB
Компьютерная литература (Программирование) Быстрый старт - Никитин Н.А. - Осваиваем ноутбук с операционной системой Windows 7 [2010, PDF, RUS] TorrentFilm 62 MB
Фантастика, фэнтези Вадим Львов | Оперативное вмешательство (2015) [FB2] достали все 1 MB
Разная литература Валентин Григорьев | Жизнь без боли в спине. Лечение сколиоза, остеопороза, остеохондроза, межпозвонковой грыжи без операции (2015) [FB2] достали все 16 MB
Фантастика, фэнтези Гарри Гаррисон - Собрание сочинений (178 книг) [1951-2015, Боевая фантастика, Космоопера, FB2] Garik014 80 MB
Показать сообщения:    

Текущее время: Сегодня 08:57

Часовой пояс: GMT



Вы не можете начинать темы
Вы не можете отвечать на сообщения
Вы не можете редактировать свои сообщения
Вы не можете удалять свои сообщения
Вы не можете голосовать в опросах
Вы не можете прикреплять файлы к сообщениям
Вы не можете скачивать файлы