Операция «Луна»: Тайный Остов Корабля Короля-Солнца / Operation Lune: The Sun King\'s Secret Shipwreck (Pascal Guérin, Herlé Jouon) [2013, Документальный, познавательный, исследования, HDTVRip 720p]

 
Автор Сообщение

TorrentFilm ®

Пол:

Стаж: 1 год 11 месяцев

Сообщений: 7741



Награды: Нет

Торрент-статистика

Создавать темы 10-Мар-2015 00:01

[Цитировать]

Операция «Луна»: Тайный Остов Корабля Короля-Солнца / Operation Lune: The Sun King's Secret Shipwreck
Год выпуска: 2013
Страна: Франция
Студия: ARTE France, Grand Anrle Productions
Жанр: Документальный, познавательный, исследования
Продолжительность: 00:54:22
Перевод: Профессиональный (одноголосый закадровый)
Доп. инфо о переводе: 1 ТВЧ
Режиссер: Pascal Guérin, Herlé Jouon
Описание: Лучшие подводники Франции, вооружившись новейшими изобретениями и технологиями 3D, исследуют затонувший корабль Людовика XIV с несчастливой судьбой.
Награды: Jury Prize winner of the 12th Amiens Archeological film Festival. Screenplay Prize winner of the 7th FILMAR of Hendaye.
Сэмпл: Скачать
Тип релиза: HDTVRip 720p
Контейнер: MKV
Видео: MPEG-4 AVC, 5250 Кбит/с, 1280x720
Аудио: AC3, 6 ch, 448 Кбит/с

MediaInfo

GeneralUnique ID : 255008182186709538756977205175743903685 (0xBFD8CA1704647A02A9BC9F77317377C5)Complete name : L:\Фильмы\Документальные\Операция Луна_720p.mkvFormat : MatroskaFormat version : Version 4 / Version 2File size : 2.17 GiBDuration : 54mn 22sOverall bit rate : 5 701 KbpsEncoded date : UTC 2015-03-08 04:56:53Writing application : mkvmerge v6.6.0 ('The Edge Of The In Between') built on Dec 1 2013 17:55:00Writing library : libebml v1.3.0 + libmatroska v1.4.1
VideoID : 1Format : AVCFormat/Info : Advanced Video CodecFormat profile : High@L4.1Format settings, CABAC : YesFormat settings, ReFrames : 9 framesCodec ID : V_MPEG4/ISO/AVCDuration : 54mn 22sBit rate : 5 250 KbpsWidth : 1 280 pixelsHeight : 720 pixelsDisplay aspect ratio : 16:9Frame rate mode : ConstantFrame rate : 25.000 fpsColor space : YUVChroma subsampling : 4:2:0Bit depth : 8 bitsScan type : ProgressiveBits/(Pixel*Frame) : 0.228Stream size : 1.95 GiB (90%)Writing library : x264 core 142 r2431 ac76440Encoding settings : cabac=1 / ref=9 / deblock=1:-1:-1 / analyse=0x3:0x133 / me=umh / subme=9 / psy=1 / psy_rd=1.00:0.10 / mixed_ref=1 / me_range=32 / chroma_me=1 / trellis=2 / 8x8dct=1 / cqm=0 / deadzone=21,11 / fast_pskip=1 / chroma_qp_offset=-3 / threads=6 / lookahead_threads=1 / sliced_threads=0 / nr=0 / decimate=0 / interlaced=0 / bluray_compat=0 / constrained_intra=0 / bframes=12 / b_pyramid=2 / b_adapt=2 / b_bias=0 / direct=3 / weightb=1 / open_gop=0 / weightp=2 / keyint=250 / keyint_min=23 / scenecut=40 / intra_refresh=0 / rc=2pass / mbtree=0 / bitrate=5250 / ratetol=1.0 / qcomp=0.60 / qpmin=0 / qpmax=69 / qpstep=4 / cplxblur=20.0 / qblur=0.5 / ip_ratio=1.40 / pb_ratio=1.30 / aq=1:1.00Language : EnglishDefault : YesForced : No
AudioID : 2Format : AC-3Format/Info : Audio Coding 3Mode extension : CM (complete main)Format settings, Endianness : BigCodec ID : A_AC3Duration : 54mn 22sBit rate mode : ConstantBit rate : 448 KbpsChannel(s) : 6 channelsChannel positions : Front: L C R, Side: L R, LFESampling rate : 48.0 KHzBit depth : 16 bitsCompression mode : LossyDelay relative to video : 64msStream size : 174 MiB (8%)Language : RussianDefault : YesForced : No
[Профиль] [ЛС]
Кто просматривает тему:

Форум Тема Автор Размер
Rock (Rock Opera/Зонг-опера) Орфей и Эвридика (Александр Журбин) - 2003, FLAC (image+.cue+scan), lossless Garik014 545 MB
BBC BBC: Операция Стоунхендж. Тайна, скрытая под камнями / Operation Stonehenge: What Lies Beneath [серии 1-2 из 2] (Джереми Тернер / Jeremy Turner) [2014 г., Документально-постановочный, история,... skorpionN 3.27 GB
Боевики, детективы, триллеры Акунин Борис - Смерть на брудершафт. Фильма 9. Операция «Транзит» [Сергей Чонишвили, 2013 г., 256 kbps, MP3] sergej644 242 MB
Разная литература Антонов В.С., Атаманенко И.Г. - 100 великих операций спецслужб (2016) FB2, RTF достали все 235 MB
Компьютерная литература (Программирование) Быстрый старт - Никитин Н.А. - Осваиваем ноутбук с операционной системой Windows 7 [2010, PDF, RUS] TorrentFilm 62 MB
Фантастика, фэнтези Вадим Львов | Оперативное вмешательство (2015) [FB2] достали все 1 MB
Разная литература Валентин Григорьев | Жизнь без боли в спине. Лечение сколиоза, остеопороза, остеохондроза, межпозвонковой грыжи без операции (2015) [FB2] достали все 16 MB
Фантастика, фэнтези Гарри Гаррисон - Собрание сочинений (178 книг) [1951-2015, Боевая фантастика, Космоопера, FB2] Garik014 80 MB
Показать сообщения:    

Текущее время: Сегодня 20:07

Часовой пояс: GMT



Вы не можете начинать темы
Вы не можете отвечать на сообщения
Вы не можете редактировать свои сообщения
Вы не можете удалять свои сообщения
Вы не можете голосовать в опросах
Вы не можете прикреплять файлы к сообщениям
Вы не можете скачивать файлы