Операция "Анадырь". На пути к Карибскому кризису (Сергей Краус) [2014, Документалистика, HDTV 1080i]

 
Автор Сообщение

TorrentFilm ®

Пол:

Стаж: 2 года

Сообщений: 7741



Награды: Нет

Торрент-статистика

Создавать темы 21-Дек-2014 02:00

[Цитировать]

Операция "Анадырь". На пути к Карибскому кризису
Год выпуска: 2014
Страна: Россия
Студия: Наше кино
Жанр: Документалистика
Продолжительность: 00:43:46
Перевод: Не требуется
Русские субтитры: нет
Режиссер: Сергей Краус
Описание: Весной 1962 года советская разведка получает копии плана ядерного удара по СССР и перечень городов, которые станут целями для американских ракет. Другой источник сообщает, что на осень 62-го назначен удар по Кубе. Хрущев взбешен. В мае он поручает Генштабу разработать план операции по переброске на остров Свободы ракет с ядерными боеголовками, способных заставить американцев образумиться. Они должны убрать ракеты из Турции и оставить в покое Кастро.
Доп. информация:

скрытый текст

Уже на стадии обсуждения операция была максимально засекречена. Архивы свидетельствуют о том, что протоколы заседаний писались от руки, в одном экземпляре. Причем писали их не секретари, а сами участники. Любопытно, что и договор с Кубой о размещении ракет и оказании военной помощи не был подписан в окончательной редакции, а лишь согласован в устной форме с приезжавшим в Москву Че Геварой. Споры были недолгими. Победила партийная дисциплина. 10 июня за проведение операции по переброске советских войск на Кубу проголосовали единогласно. Операция получила кодовое название "Анадырь". В тот момент на Чукотке, на берегах реки Анадырь, создавался укрепрайон. Войскам, отправляющимся на Кубу, выдавали полушубки и лыжи под видом того, что им предстоит передислокация на Дальний Восток. Возможно, эта дезинформация и сыграла свою роль в том, что буквально на пике Карибского кризиса эксперты ЦРУ все еще клали на стол президенту Кеннеди информацию о том, что русские доставили на Кубу всего десять тысяч солдат и дивизион ракет ПВО. В действительности все обстояло совсем не так…
СССР удалось скрытно перебросить в 1962 году на Кубу крупное соединение войск. Оно насчитывало 40 тысяч солдат и офицеров. Кроме того, на Кубу привезли ракеты средней дальности с ядерными боеголовками, подразделения бомбардировщиков, тактических и крылатых ракет, оснащенных атомными зарядами. По последующим прогнозам американских аналитиков, если бы Москва привела в действие эту мощную военную машину, каждый третий житель США оказался бы в зоне возможного удара русских.
Это была колоссальная, не имеющая аналогов работа, с которой блестяще справились военные, транспортники и контрразведчики. Практически весь советский гражданский флот был мобилизован на кубинское направление. 85 судов совершили за полгода 183 рейса из девяти советских портов от Мурманска до Николаева. Эти самые обычные торговые суда были совершенно не приспособлены для перевозки столь сложных грузов и тем более людей. Ракеты грузились в трюмы лесовозом иногда в нарушение всех норм - наискосок. Людей везли в поистине адских условиях. В верхней части трюма обычного теплохода сооружались нары в два яруса, на которых перевозили личный состав. На судно поднимались ночью. На причалы люди зачастую даже не спускались, переходили из вагона в вагон, а затем из головного вагона - на трап и прямиком в трюм. Там им предстояло провести 17 дней в страшной жаре и тесноте, с нехваткой воды и полноценной пищи, имея возможность подышать чистым воздухом лишь ночью, когда разрешалось выйти на палубу.
Разведывательные самолеты НАТО вели наблюдение за сухогрузами чуть ли не с момента их выхода из порта. Но обобщить информацию и сделать из нее правильные выводы ЦРУ так и не сумело.
Автор: Ольга Демина
Сэмпл: http://multi-up.com/1015807
Тип релиза: HDTV 1080i
Контейнер: TS
Видео: AVC, 1920х1080, 16:9, 8487 Кбит/сек, 25 fps
Аудио: MPEG Audio, 224 Кбит/сек, 48 КГц, 2 канала

MediaInfo

ОбщееИдентификатор : 16 (0x10)Полное имя : Operation Anadyr_HD.tsФормат : MPEG-TSРазмер файла : 2,80 ГбайтПродолжительность : 43 м.Режим общего битрейта : ПеременныйОбщий поток : 9166 Кбит/сек
ВидеоИдентификатор : 1901 (0x76D)Идентификатор меню : 901 (0x385)Формат : AVCФормат/Информация : Advanced Video CodecПрофиль формата : High@L4.0Параметр CABAC формата : ДаПараметр ReFrames формата : 3 кадраИдентификатор кодека : 27Продолжительность : 43 м.Битрейт : 8487 Кбит/секШирина : 1920 пикселейВысота : 1080 пикселейСоотношение сторон : 16:9Частота кадров : 25,000 кадров/секСтандарт вещания : PALЦветовое пространство : YUVСубдискретизация насыщенности : 4:2:0Битовая глубина : 8 битТип развёртки : ЧересстрочнаяПорядок развёртки : Верхнее поле первоеБит/(Пиксели*Кадры) : 0.164Размер потока : 2,59 Гбайт (93%)Основные цвета : BT.709Характеристики трансфера : BT.709Коэффициенты матрицы : BT.709
АудиоИдентификатор : 2901 (0xB55)Идентификатор меню : 901 (0x385)Формат : MPEG AudioВерсия формата : Version 1Профиль формата : Layer 2Идентификатор кодека : 4Продолжительность : 43 м.Вид битрейта : ПостоянныйБитрейт : 224 Кбит/секКаналы : 2 каналаЧастота : 48,0 КГцМетод сжатия : С потерямиЗадержка видео : 88 мс.Размер потока : 70,1 Мбайт (2%)Язык : stdЯзык, дополнительно : Clean effects

Скриншоты

[Профиль] [ЛС]
Кто просматривает тему:

Форум Тема Автор Размер
Rock (Rock Opera/Зонг-опера) Орфей и Эвридика (Александр Журбин) - 2003, FLAC (image+.cue+scan), lossless Garik014 545 MB
BBC BBC: Операция Стоунхендж. Тайна, скрытая под камнями / Operation Stonehenge: What Lies Beneath [серии 1-2 из 2] (Джереми Тернер / Jeremy Turner) [2014 г., Документально-постановочный, история,... skorpionN 3.27 GB
Боевики, детективы, триллеры Акунин Борис - Смерть на брудершафт. Фильма 9. Операция «Транзит» [Сергей Чонишвили, 2013 г., 256 kbps, MP3] sergej644 242 MB
Разная литература Антонов В.С., Атаманенко И.Г. - 100 великих операций спецслужб (2016) FB2, RTF достали все 235 MB
Компьютерная литература (Программирование) Быстрый старт - Никитин Н.А. - Осваиваем ноутбук с операционной системой Windows 7 [2010, PDF, RUS] TorrentFilm 62 MB
Фантастика, фэнтези Вадим Львов | Оперативное вмешательство (2015) [FB2] достали все 1 MB
Разная литература Валентин Григорьев | Жизнь без боли в спине. Лечение сколиоза, остеопороза, остеохондроза, межпозвонковой грыжи без операции (2015) [FB2] достали все 16 MB
Фантастика, фэнтези Гарри Гаррисон - Собрание сочинений (178 книг) [1951-2015, Боевая фантастика, Космоопера, FB2] Garik014 80 MB
Показать сообщения:    

Текущее время: Сегодня 06:24

Часовой пояс: GMT



Вы не можете начинать темы
Вы не можете отвечать на сообщения
Вы не можете редактировать свои сообщения
Вы не можете удалять свои сообщения
Вы не можете голосовать в опросах
Вы не можете прикреплять файлы к сообщениям
Вы не можете скачивать файлы