Оператор / Operator (Амария Олсон / Maria Olsen, Обин Олсон / Obin Olson) [2015, США, Боевик, триллер, драма HDRip] VO

 
Автор Сообщение

TorrentFilm ®

Пол:

Стаж: 2 года

Сообщений: 7741



Награды: Нет

Торрент-статистика

Создавать темы 31-Дек-2015 00:09

[Цитировать]

Оператор / Operator-- Страна: США
Жанр: Боевик, триллер, драма
Год выпуска: 2015
Продолжительность: 01:27:00
Перевод: Одноголосый закадровый (Хихикающий доктор)
Cубтитры: нет
Режиссер: Амария Олсон / Maria Olsen, Обин Олсон /Obin Olson
В ролях: Винг Рэймс, Люк Госс, Миша Бартон, Майкл Паре, Райли Бандик, Тони ДеМилл, Морис Шевалье, Уолтер Хендрикс III, Уенделл Кинни, Саммер Перкинс
Описание: Когда дочь оператора 911 Памелы (Mischa Barton) похищают, ее бывшей муж Джереми (Люк Госс), старший офицер полиции следует правилам похитителя и отправляется в разные места города, при этом сея хаос и разрушения. Не зная, кто и почему, полицейский с напарником пытаются перехитрить злоумышленника и спасти девочку.
Сэмпл: http://multi-up.com/1081726
Качество видео: HDRip
Формат видео: AVI
Видео: 1997 Кбит/сек 720 x 304 (2.368) 23.976
Аудио: AC-3 384 Кбит/сек 6 каналов, 48,0 КГц

MediaInfo

Общее
Полное имя : F:\Operator_.avi
Формат : AVI
Формат/Информация : Audio Video Interleave
Размер файла : 1,45 Гбайт
Продолжительность : 1 ч. 27 м.
Общий поток : 2391 Кбит/сек
Программа кодирования : VirtualDubMod 1.5.10.3 | www.virtualdub-fr.org || (build 2550/release)
Библиотека кодирования : VirtualDubMod build 2550/release
Видео
Идентификатор : 0
Формат : MPEG-4 Visual
Профиль формата : Advanced Simple@L5
Параметр BVOP формата : 1
Параметр QPel формата : Нет
Параметр GMC формата : Без точки перехода
Параметр матрицы формата : Выборочная
Идентификатор кодека : XVID
Идентификатор кодека/Подсказка : XviD
Продолжительность : 1 ч. 27 м.
Битрейт : 1997 Кбит/сек
Ширина : 720 пикселей
Высота : 304 пикселя
Соотношение сторон : 2,35:1
Частота кадров : 23,976 кадра/сек
Цветовое пространство : YUV
Субдискретизация насыщенности : 4:2:0
Битовая глубина : 8 бит
Тип развёртки : Прогрессивная
Метод сжатия : С потерями
Бит/(Пиксели*Кадры) : 0.381
Размер потока : 1,21 Гбайт (84%)
Библиотека кодирования : XviD 73
Аудио
Идентификатор : 1
Формат : AC-3
Формат/Информация : Audio Coding 3
Расширение режима : CM (complete main)
Параметр Endianness формата : Big
Идентификатор кодека : 2000
Продолжительность : 1 ч. 27 м.
Вид битрейта : Постоянный
Битрейт : 384 Кбит/сек
Каналы : 6 каналов
Расположение каналов : Front: L C R, Side: L R, LFE
Частота : 48,0 КГц
Битовая глубина : 16 бит
Метод сжатия : С потерями
Размер потока : 239 Мбайт (16%)
Выравнивание : Разделение по промежуткам
Продолжительность промежутка : 42 мс. (1,00 видеокадр)
Время предзагрузки промежутка : 500 мс.

Скриншот c названием фильма

Скриншоты

[Профиль] [ЛС]
Кто просматривает тему:

Форум Тема Автор Размер
Rock (Rock Opera/Зонг-опера) Орфей и Эвридика (Александр Журбин) - 2003, FLAC (image+.cue+scan), lossless Garik014 545 MB
BBC BBC: Операция Стоунхендж. Тайна, скрытая под камнями / Operation Stonehenge: What Lies Beneath [серии 1-2 из 2] (Джереми Тернер / Jeremy Turner) [2014 г., Документально-постановочный, история,... skorpionN 3.27 GB
Боевики, детективы, триллеры Акунин Борис - Смерть на брудершафт. Фильма 9. Операция «Транзит» [Сергей Чонишвили, 2013 г., 256 kbps, MP3] sergej644 242 MB
Разная литература Антонов В.С., Атаманенко И.Г. - 100 великих операций спецслужб (2016) FB2, RTF достали все 235 MB
Компьютерная литература (Программирование) Быстрый старт - Никитин Н.А. - Осваиваем ноутбук с операционной системой Windows 7 [2010, PDF, RUS] TorrentFilm 62 MB
Фантастика, фэнтези Вадим Львов | Оперативное вмешательство (2015) [FB2] достали все 1 MB
Разная литература Валентин Григорьев | Жизнь без боли в спине. Лечение сколиоза, остеопороза, остеохондроза, межпозвонковой грыжи без операции (2015) [FB2] достали все 16 MB
Фантастика, фэнтези Гарри Гаррисон - Собрание сочинений (178 книг) [1951-2015, Боевая фантастика, Космоопера, FB2] Garik014 80 MB
Показать сообщения:    

Текущее время: Сегодня 08:12

Часовой пояс: GMT



Вы не можете начинать темы
Вы не можете отвечать на сообщения
Вы не можете редактировать свои сообщения
Вы не можете удалять свои сообщения
Вы не можете голосовать в опросах
Вы не можете прикреплять файлы к сообщениям
Вы не можете скачивать файлы