Опасные секреты / Official Secrets (2019) WEB-DLRip | iTunes

 
Author Message

BOSS ®

Gender:

Longevity: 5 years 3 months

Posts: 14230

Location: ODESSA



: 22 ()

Top Releaser 4 (1) Top Releaser 2 (1) Top Keeper 3 (1)
Торрент-статистика

Post 08-Dec-2019 09:48

[Quote]

Информация о фильме
Название: Опасные секреты
Оригинальное название: Official Secrets
Год выпуска: 2019
Жанр: Триллер, драма, мелодрама, военный, биография
Режиссер: Гэвин Худ
В ролях: Кира Найтли, Мэттью Гуд, Рэйф Файнс, Индира Варма, Мэтт Смит, МайЭнн Беринг, Рис Иванс, Тамсин Грейг, Джек Фартинг, Хэтти Морахэн, Конлет Хилл, Кэтрин Келли, Шон Дули, Моника Долан, Кеннет Крэнэм, Крис Ларкин, Рэй Пантаки, Джон Хеффернан, Питер Гиннесс, Энгус Райт, Клив Френсис, Крис Райли, Адам Бакри, Даррелл Д’Силва, Линди Уайтфорд, Джени Ди, Радж Авасти, Уилл Бартон
О фильме: Сотрудница британской разведки Кэтрин Ган обнародует засекреченное электронное письмо, в котором изобличаются американское и британское правительства в их незаконном вторжении в Ирак. Кэтрин и её адвокаты пытаются оправдать её действия в суде - ей вменяют нарушение Закона о государственной тайне. Под угрозой её жизнь, свобода и брак, но ей необходимо отстоять свои убеждения.

Страна: Великобритания, США
Студия: Classified Films, Clear Pictures Entertainment, GS Media
Продолжительность: 01:52:02
Перевод: Профессиональный (дублированный) | iTunes
Файл
Качество: WEB-DLRip
Формат: AVI
Видео: 720x304 (2.37:1), 23.976 fps, XviD build 73 ~1997 kbps avg, 0.38 bit/pixel
Аудио 1: 48 kHz, AC3 Dolby Digital, 3/2 (L,C,R,l,r) + LFE ch, ~384 kbps | RUS
Аудио 2: 48 kHz, AC3 Dolby Digital, 3/2 (L,C,R,l,r) + LFE ch, ~384 kbps | ENG
Субтитры: Английские (SDH) - отдельно

Скриншоты

MediaInfo

Формат : AVI
Формат/Информация : Audio Video Interleave
Профиль формата : OpenDML
Размер файла : 2,18 Гбайт
Продолжительность : 1 ч. 52 м.
Общий поток : 2783 Кбит/сек
Название фильма : Опасные секреты_2019_WEB-DLRip
Программа кодирования : VirtualDubMod 1.5.10.3 | (build 2550/release)
Авторское право : порошков
Видео
Идентификатор : 0
Формат : MPEG-4 Visual
Профиль формата : Advanced Simple@L5
Настройки формата : BVOP1 / Custom Matrix
Параметр BVOP формата : 1
Параметр QPel формата : Нет
Параметр GMC формата : Без точки перехода
Параметр матрицы формата : Выборочная
Идентификатор кодека : XVID
Идентификатор кодека/Подсказка : XviD
Продолжительность : 1 ч. 52 м.
Битрейт : 1997 Кбит/сек
Ширина : 720 пикселей
Высота : 304 пикселя
Соотношение сторон : 2,35:1
Частота кадров : 23,976 (24000/1001) кадра/сек
Цветовое пространство : YUV
Субдискретизация насыщенности : 4:2:0
Битовая глубина : 8 бит
Тип развёртки : Прогрессивная
Метод сжатия : С потерями
Бит/(Пиксели*Кадры) : 0.381
Размер потока : 1,56 Гбайт (72%)
Библиотека кодирования : XviD 73
Аудио #1
Идентификатор : 1
Формат : AC-3
Формат/Информация : Audio Coding 3
Коммерческое название : Dolby Digital
Идентификатор кодека : 2000
Продолжительность : 1 ч. 52 м.
Вид битрейта : Постоянный
Битрейт : 384 Кбит/сек
Каналы : 6 каналов
ChannelLayout : L R C LFE Ls Rs
Частота : 48,0 КГц
Частота кадров : 31,250 кадров/сек (1536 SPF)
Метод сжатия : С потерями
Размер потока : 308 Мбайт (14%)
Выравнивание : Разделение по промежуткам
Продолжительность промежутка : 42 мс. (1,00 видеокадр)
Время предзагрузки промежутка : 500 мс.
Заголовок : rus
Аудио #2
Идентификатор : 2
Формат : AC-3
Формат/Информация : Audio Coding 3
Коммерческое название : Dolby Digital
Идентификатор кодека : 2000
Продолжительность : 1 ч. 52 м.
Вид битрейта : Постоянный
Битрейт : 384 Кбит/сек
Каналы : 6 каналов
ChannelLayout : L R C LFE Ls Rs
Частота : 48,0 КГц
Частота кадров : 31,250 кадров/сек (1536 SPF)
Метод сжатия : С потерями
Размер потока : 308 Мбайт (14%)
Выравнивание : Разделение по промежуткам
Продолжительность промежутка : 42 мс. (1,00 видеокадр)
Время предзагрузки промежутка : 500 мс.
Заголовок : eng
[Profile] [PM]
Кто просматривает тему:

Forum Topic Author Size
Chanson (Шансон) VA - Опасные Связи (Выпуск Седьмой) - 2015, MP3, 256 kbps Magnat 726 MB
Animal Planet Animal Planet: Самые опасные змеи с Найджелом Марвином / Ten Deadliest Snakes with Nigel Marven [сезон 1 серии 1-4 из 4] (Алекс Минтон) [2014 г., Документальный, природа, флора, фауна, HDTVRip 720p] skorpionN 6.33 GB
Работа с носителями информации MyDisk 2.0 x86+x64 [2012, ENG] (безопасное извлечение USB/HDD-дисков) (авторская раздача) TorrentFilm 672 KB
Nat Geo Wild Nat Geo Wild: В опасных водах Австралии. Обед для акул / Strike force (Лео Фабер) [2010 г., Документальный, флора, фауна, научно-познавательный, исследование, HDTV 1080i] boba88 2.19 GB
Nat Geo Wild Nat Geo Wild: Рожденные в Африке. Опасная игровая площадка / Born in Afrika (2018) HDTV 1080i | P1 sergej644 2.4 GB
S.T.A.L.K.E.R. S.T.A.L.K.E.R.: Call of Pripyat - Опасный Вирус [Repack] [Ru] (2015) (1.6.02) TorrentFilm 3.02 GB
Отечественные cериалы Агент национальной безопасности (5 сезонов, 1 - 60серии) (Д.Светозаров и др.) [1998 г.-2004 г., детектив боевик, DVDRip] Nekto 10.74 GB
Фантастика и фэнтези Анатолий Половинкин – Опасный груз или А-44 (2016) MP3 Swager 387 MB
Display posts from previous:    

The time now is: Today 09:07

All times are GMT



You cannot post new topics in this forum
You cannot reply to topics in this forum
You cannot edit your posts in this forum
You cannot delete your posts in this forum
You cannot vote in polls in this forum
You cannot attach files in this forum
You cannot download files in this forum