Опасное погружение / Pressure (Рон Скальпелло / Ron Scalpello) [2015, Великобритания, Триллер, WEB-DLRip] Dub

 
Автор Сообщение

TorrentFilm ®

Пол:

Стаж: 2 года

Сообщений: 7741



Награды: Нет

Торрент-статистика

Создавать темы 01-Июн-2015 00:04

[Цитировать]

Опасное погружение / Pressure
«Задержи своё дыхание»
- Год выпуска: 2015
Выпущено: Великобритания / Bigscope Films
Жанр: триллер
Продолжительность: 01:31:14
Перевод: Профессиональный (полное дублирование)
Cубтитры: нет-Режиссер:
Рон Скальпелло / Ron Scalpello-В ролях:
Дэнни Хьюстон (Engel), Мэттью Гуд (Mitchell), Джо Коул (Jones), Алан МакКенна (Hurst), Йен Пири (Karsen), Дэйзи Лоу (Emily Lou), Гемита Самарра (Lisa), Ричард Битта (Naval Security Officer)-Описание:
Маленькая капсула с четырьмя водолазами застряла на дне восточноафриканских вод на глубине пяти километров. Кислорода с каждым вдохом становится все меньше, а надежда на чудесное спасение тает с каждой минутой. Брошенным на произвол судьбы, им ничего не остается, кроме как попытаться спастись своими силами, полагаясь лишь на собственную храбрость и отчаянное желание выжить.-Релиз групп | | IMDB | КиноПоиск | Сэмпл |-Качество: WEB-DLRip [WEB-DL | 720p | Uniongang]
Формат: AVI
Видео: 720x384 (1.88:1), 24.000 fps, XviD build 73 ~1889 kbps avg, 0.28 bit/pixel
Аудио: 48 kHz, AC3 Dolby Digital, 3/2 (L,C,R,l,r) + LFE ch, ~384.00 kbps avg - iTunes Russia
-

Скриншоты

MediaInfo

General
Complete name                            : D:\Opasnoe_pogruzhenie_2015_WEB-DLRip_by_Dalemake.avi
Format                                   : AVI
Format/Info                              : Audio Video Interleave
File size                                : 1.45 GiB
Duration                                 : 1h 31mn
Overall bit rate                         : 2 283 Kbps
Writing application                      : VirtualDubMod 1.5.10.3 | www.virtualdub-fr.org || (build 2550/release)
Writing library                          : VirtualDubMod build 2550/release
Video
ID                                       : 0
Format                                   : MPEG-4 Visual
Format profile                           : Advanced Simple@L5
Format settings, BVOP                    : 1
Format settings, QPel                    : No
Format settings, GMC                     : No warppoints
Format settings, Matrix                  : Custom
Codec ID                                 : XVID
Codec ID/Hint                            : XviD
Duration                                 : 1h 31mn
Bit rate                                 : 1 890 Kbps
Width                                    : 720 pixels
Height                                   : 384 pixels
Display aspect ratio                     : 1.85:1
Frame rate                               : 24.000 fps
Color space                              : YUV
Chroma subsampling                       : 4:2:0
Bit depth                                : 8 bits
Scan type                                : Progressive
Compression mode                         : Lossy
Bits/(Pixel*Frame)                       : 0.285
Stream size                              : 1.20 GiB (83%)
Writing library                          : XviD 73
Audio
ID                                       : 1
Format                                   : AC-3
Format/Info                              : Audio Coding 3
Mode extension                           : CM (complete main)
Format settings, Endianness              : Big
Codec ID                                 : 2000
Duration                                 : 1h 31mn
Bit rate mode                            : Constant
Bit rate                                 : 384 Kbps
Channel(s)                               : 6 channels
Channel positions                        : Front: L C R, Side: L R, LFE
Sampling rate                            : 48.0 KHz
Bit depth                                : 16 bits
Compression mode                         : Lossy
Stream size                              : 251 MiB (17%)
Alignment                                : Split accross interleaves
Interleave, duration                     : 42 ms (1.00 video frame)
Interleave, preload duration             : 500 ms
-
[Профиль] [ЛС]
Кто просматривает тему:

Форум Тема Автор Размер
Chanson (Шансон) VA - Опасные Связи (Выпуск Седьмой) - 2015, MP3, 256 kbps Magnat 726 MB
Animal Planet Animal Planet: Самые опасные змеи с Найджелом Марвином / Ten Deadliest Snakes with Nigel Marven [сезон 1 серии 1-4 из 4] (Алекс Минтон) [2014 г., Документальный, природа, флора, фауна, HDTVRip 720p] skorpionN 6.33 GB
Работа с носителями информации MyDisk 2.0 x86+x64 [2012, ENG] (безопасное извлечение USB/HDD-дисков) (авторская раздача) TorrentFilm 672 KB
S.T.A.L.K.E.R. S.T.A.L.K.E.R.: Call of Pripyat - Опасный Вирус [Repack] [Ru] (2015) (1.6.02) TorrentFilm 3.02 GB
Отечественные cериалы Агент национальной безопасности [S01-05] (1999-2004) DVDRip Russian Mafia 39.32 GB
Фантастика и фэнтези Анатолий Половинкин – Опасный груз или А-44 (2016) MP3 Swager 387 MB
Фильмы 2001-2005 года Антимонополия / Опасная правда / Antitrust (Питер Хауит / Peter Howitt) [2001 г., триллер, драма, криминал, HDTVRip] 2 * MVO + original + subs sergej644 2.18 GB
Разное Безопасность в сети - Методы взлома и защиты (2015) PCRec sergej644 1021 MB
Показать сообщения:    

Текущее время: Сегодня 08:52

Часовой пояс: GMT



Вы не можете начинать темы
Вы не можете отвечать на сообщения
Вы не можете редактировать свои сообщения
Вы не можете удалять свои сообщения
Вы не можете голосовать в опросах
Вы не можете прикреплять файлы к сообщениям
Вы не можете скачивать файлы