Опасное погружение / Pressure (Рон Скальпелло / Ron Scalpello) [2015, Великобритания, триллер, WEB-DLRip] Dub [iTunes]

 
Автор Сообщение

AleksSin ®

Пол:

Стаж: 6 лет

Сообщений: 218



Награды: 4 (Подробнее)

Mega Seeder 3 (Количество: 1) Mega Seeder 2 (Количество: 1) Mega Seeder 1 (Количество: 1)
Торрент-статистика

Создавать темы 29-Май-2015 09:10

[Цитировать]

Опасное погружение / Pressure«Задержи своё дыхание» Страна: Великобритания / Bigscope Films
Жанр: триллер
Год выпуска: 2015
Продолжительность: 01:31:14
Перевод: Профессиональный (дублированный) [iTunes]
Cубтитры: нет
Оригинальная аудиодорожка: нет
Режиссер: Рон Скальпелло / Ron Scalpello
В ролях: Дэнни Хьюстон, Мэттью Гуд, Джо Коул, Алан МакКенна, Йен Пири, Дэйзи Лоу, Гемита Самарра, Ричард Битта
Описание: Маленькая капсула с четырьмя водолазами застряла на дне восточноафриканских вод на глубине пяти километров. Кислорода с каждым вдохом становится все меньше, а надежда на чудесное спасение тает с каждой минутой. Брошенным на произвол судьбы, им ничего не остается, кроме как попытаться спастись своими силами, полагаясь лишь на собственную храбрость и отчаянное желание выжить.

Качество видео: WEB-DLRip [WEB-DL | 720p | Uniongang]
Формат видео: AVI
Видео кодек: XviD
Аудио кодек: МР3
Видео: 656x352 (1.86:1), 24 fps, XviD build 73 ~1004 kbps avg, 0.18 bit/pixel
Аудио: 48 kHz, MPEG Layer 3, 2 ch, ~128.00 kbps avg

MediaInfo

Общее
Полное имя : S:ФильмыОпасное погружение. 2015. WEB-DLRip (AleksSin).avi
Формат : AVI
Формат/Информация : Audio Video Interleave
Размер файла : 745 Мбайт
Продолжительность : 1 ч. 31 м.
Общий поток : 1142 Кбит/сек
Программа кодирования : VirtualDubMod 1.5.10.3 | www.virtualdub-fr.org || (build 2550/release)
Библиотека кодирования : VirtualDubMod build 2550/release
Видео
Идентификатор : 0
Формат : MPEG-4 Visual
Профиль формата : Advanced Simple@L5
Параметр BVOP формата : 1
Параметр QPel формата : Нет
Параметр GMC формата : Без точки перехода
Параметр матрицы формата : Выборочная
Идентификатор кодека : XVID
Идентификатор кодека/Подсказка : XviD
Продолжительность : 1 ч. 31 м.
Битрейт : 1004 Кбит/сек
Ширина : 656 пикс.
Высота : 352 пикс.
Соотношение сторон : 1,864
Частота кадров : 24,000 кадр/сек
Цветовое пространство : YUV
Подвыборка цветности : 4:2:0
Битовая глубина : 8 бит
Тип развёртки : Прогрессивная
Метод сжатия : С потерями
Бит/(Пиксели*Кадры) : 0.181
Размер потока : 655 Мбайт (88%)
Библиотека кодирования : XviD 73
Аудио
Идентификатор : 1
Формат : MPEG Audio
Версия формата : Version 1
Профиль формата : Layer 3
Идентификатор кодека : 55
Идентификатор кодека/Подсказка : MP3
Продолжительность : 1 ч. 31 м.
Вид битрейта : Постоянный
Битрейт : 128 Кбит/сек
Каналы : 2 канала
Частота : 48,0 КГц
Метод сжатия : С потерями
Размер потока : 83,5 Мбайт (11%)
Выравнивание : Соединение по промежуткам
Продолжительность промежутка : 42 мс. (1,00 видеокадр)
Время предзагрузки промежутка : 504 ms
Библиотека кодирования : LAME3.99r
Настройки программы : -m s -V 4 -q 2 -lowpass 17 -b 128

Скриншот c названием фильма

Скриншоты

[Профиль] [ЛС]
Кто просматривает тему:

Форум Тема Автор Размер
Chanson (Шансон) VA - Опасные Связи (Выпуск Седьмой) - 2015, MP3, 256 kbps Magnat 726 MB
Animal Planet Animal Planet: Самые опасные змеи с Найджелом Марвином / Ten Deadliest Snakes with Nigel Marven [сезон 1 серии 1-4 из 4] (Алекс Минтон) [2014 г., Документальный, природа, флора, фауна, HDTVRip 720p] skorpionN 6.33 GB
Работа с носителями информации MyDisk 2.0 x86+x64 [2012, ENG] (безопасное извлечение USB/HDD-дисков) (авторская раздача) TorrentFilm 672 KB
S.T.A.L.K.E.R. S.T.A.L.K.E.R.: Call of Pripyat - Опасный Вирус [Repack] [Ru] (2015) (1.6.02) TorrentFilm 3.02 GB
Отечественные cериалы Агент национальной безопасности [S01-05] (1999-2004) DVDRip Russian Mafia 39.32 GB
Фантастика и фэнтези Анатолий Половинкин – Опасный груз или А-44 (2016) MP3 Swager 387 MB
Фильмы 2001-2005 года Антимонополия / Опасная правда / Antitrust (Питер Хауит / Peter Howitt) [2001 г., триллер, драма, криминал, HDTVRip] 2 * MVO + original + subs sergej644 2.18 GB
Разное Безопасность в сети - Методы взлома и защиты (2015) PCRec sergej644 1021 MB
Показать сообщения:    

Текущее время: Сегодня 22:25

Часовой пояс: GMT



Вы не можете начинать темы
Вы не можете отвечать на сообщения
Вы не можете редактировать свои сообщения
Вы не можете удалять свои сообщения
Вы не можете голосовать в опросах
Вы не можете прикреплять файлы к сообщениям
Вы не можете скачивать файлы