Опасная комбинация (Арменак Назикян) [2008, Россия, боевик, HDTV 1080i]

 
Автор Сообщение

TorrentFilm ®

Пол:

Стаж: 2 года

Сообщений: 7741



Награды: Нет

Торрент-статистика

Создавать темы 12-Мар-2015 00:01

[Цитировать]

Опасная комбинация
Страна: Россия
Студия: OOO "Интра Фильм"
Жанр: боевик
Год выпуска: 2008
Продолжительность: 01:33:13
Перевод: не требуется
Субтитры: нет
Режиссёр: Арменак Назикян
В ролях: Вячеслав Разбегаев, Екатерина Решетникова, Артур Ваха, Евгений Баранов, Андрей Федорцов, Наталья Ткаченко (Бартева), Иван Краско, Сергей Чудаков, Олег Алмазов, Юрий Лазарев, Юлия Руди и другие
Описание: Захватывающая детективная история с погонями, перестрелками, оборотнями в пагонах. Влиятельный бизнесмен Эдуард Иванович обращается к полковнику милиции Егорову, посодействовать ему за крупное вознаграждение в незаконном вывозе радиоактивных отходов из Англии и захоронении их на территории России. Егоров поручает эту операцию уволенному из органов милиции Сергею Самсонову. После трагической гибели любимой женщины Людмилы, в смерти, которой он себя считает виновным, Самсонов соглашается. Друг Самсонова - журналист Кириллов обладает информацией об этой операции и начинает собственное расследование, которое стоит ему жизни. Потрясенный смертью близкого друга, Самсонов хочет самостоятельно разобраться в этом деле...
Сэмпл: http://multi-up.com/1035990
Качество видео: HDTV 1080i
Формат видео: MKV
Видео: AVC, 1920x1080, (16:9), 25 fps, 7. 329 Kbps, 0.141 bit/pixel
Аудио: русский, MP2, 48 kHz, 2ch, 320 kbps

MediaInfo

General
Unique ID : 219564893886316504372131721660117236730 (0xA52EA90F2277CEA8B1DBE9BB5CD33BFA)
Complete name : D:\Опасная комбинация_2008_HDTV 1080i_RU.mkv
Format : Matroska
Format version : Version 4 / Version 2
File size : 5.08 GiB
Duration : 1h 33mn
Overall bit rate : 7 804 Kbps
Encoded date : UTC 2015-03-02 12:32:43
Writing application : mkvmerge v7.7.0 ('Six Voices') 64bit built on Feb 28 2015 23:39:33
Writing library : libebml v1.3.1 + libmatroska v1.4.2
DURATION : 01:33:13.032000000
NUMBER_OF_FRAMES : 233043
NUMBER_OF_BYTES : 223721280
_STATISTICS_WRITING_APP : mkvmerge v7.7.0 ('Six Voices') 64bit built on Feb 28 2015 23:39:33
_STATISTICS_WRITING_DATE_UTC : 2015-03-02 12:32:43
_STATISTICS_TAGS : BPS DURATION NUMBER_OF_FRAMES NUMBER_OF_BYTES
Video
ID : 1
Format : AVC
Format/Info : Advanced Video Codec
Format profile : High@L4.0
Format settings, CABAC : Yes
Format settings, ReFrames : 3 frames
Format settings, GOP : M=2, N=30
Codec ID : V_MPEG4/ISO/AVC
Duration : 1h 33mn
Bit rate : 7 329 Kbps
Width : 1 920 pixels
Height : 1 080 pixels
Display aspect ratio : 16:9
Frame rate mode : Constant
Frame rate : 25.000 fps
Standard : Component
Color space : YUV
Chroma subsampling : 4:2:0
Bit depth : 8 bits
Scan type : MBAFF
Scan order : Bottom Field First
Bits/(Pixel*Frame) : 0.141
Stream size : 4.77 GiB (94%)
Default : Yes
Forced : No
Color primaries : BT.709
Transfer characteristics : BT.709
Matrix coefficients : BT.709
Color range : Limited
Audio
ID : 2
Format : MPEG Audio
Format version : Version 1
Format profile : Layer 2
Codec ID : A_MPEG/L2
Codec ID/Hint : MP2
Duration : 1h 33mn
Bit rate mode : Constant
Bit rate : 320 Kbps
Channel(s) : 2 channels
Sampling rate : 48.0 KHz
Compression mode : Lossy
Stream size : 213 MiB (4%)
Language : English
Default : Yes
Forced : No

Скриншот c названием фильма

Скриншоты

[Профиль] [ЛС]
Кто просматривает тему:

Форум Тема Автор Размер
Chanson (Шансон) VA - Опасные Связи (Выпуск Седьмой) - 2015, MP3, 256 kbps Magnat 726 MB
Animal Planet Animal Planet: Самые опасные змеи с Найджелом Марвином / Ten Deadliest Snakes with Nigel Marven [сезон 1 серии 1-4 из 4] (Алекс Минтон) [2014 г., Документальный, природа, флора, фауна, HDTVRip 720p] skorpionN 6.33 GB
Работа с носителями информации MyDisk 2.0 x86+x64 [2012, ENG] (безопасное извлечение USB/HDD-дисков) (авторская раздача) TorrentFilm 672 KB
S.T.A.L.K.E.R. S.T.A.L.K.E.R.: Call of Pripyat - Опасный Вирус [Repack] [Ru] (2015) (1.6.02) TorrentFilm 3.02 GB
Отечественные cериалы Агент национальной безопасности [S01-05] (1999-2004) DVDRip Russian Mafia 39.32 GB
Фантастика и фэнтези Анатолий Половинкин – Опасный груз или А-44 (2016) MP3 Swager 387 MB
Фильмы 2001-2005 года Антимонополия / Опасная правда / Antitrust (Питер Хауит / Peter Howitt) [2001 г., триллер, драма, криминал, HDTVRip] 2 * MVO + original + subs sergej644 2.18 GB
Разное Безопасность в сети - Методы взлома и защиты (2015) PCRec sergej644 1021 MB
Показать сообщения:    

Текущее время: Сегодня 10:31

Часовой пояс: GMT



Вы не можете начинать темы
Вы не можете отвечать на сообщения
Вы не можете редактировать свои сообщения
Вы не можете удалять свои сообщения
Вы не можете голосовать в опросах
Вы не можете прикреплять файлы к сообщениям
Вы не можете скачивать файлы