Опасная иллюзия / The Necessary Death of Charlie Countryman (2013) BDRip 720p | Лицензия

 
Автор Сообщение

sergej644 ®

Пол:

Стаж: 4 года 11 месяцев

Сообщений: 6043

Откуда: Soviet Union



Награды: Нет

Торрент-статистика

Создавать темы 11-Фев-2015 12:10

[Цитировать]

Опасная иллюзия / The Necessary Death of Charlie CountrymanГод выпуска: 2013
Страна: США, Румыния
Производство: Bona Fide Productions, Media Pro, MediaPro Pictures, Mediapro Studios
Слоган: «На грани жизни и смерти. Ради неё»
Жанр: триллер, криминал, боевик, драма, мелодрама, комедия
Продолжительность: 01:43:36
Перевод: Профессиональный (полное дублирование) R5
Субтитры: Русские, английские-Режиссер: Фредрик Бонд / Fredrik Bond
Сценарий: Мэтт Дрэйк / Matt Drake
Продюсер: Альберт Бергер / Albert Berger, Крэйг Дж. Флорес / Craig J. Flores, Уильям Хорберг / William Horberg, Рон Йеркса / Ron Yerxa, Марк Бакунас / Mark Bakunas
Оператор: Роман Васьянов
Композитор: Кристоф Бек / Christophe Beck, DeadMono / DeadMono-В ролях:
Шайа ЛаБаф (Charlie Countryman), Эван Рэйчел Вуд (Gabi Ibanescu), Мадс Миккельсен (Nigel), Тиль Швайгер (Darko), Руперт Гринт (Karl), Джеймс Бакли (Luc), Ион Карамитру (Victor Ibanescu), Винсент Д’Онофрио (Bill), Мелисса Лео (Kate), Джон Хёрт (рассказчик, озвучка), Андрей Финти (Bela), Ванесса Кирби (Felicity)
Дублёры: Никита Ефремов (Charlie Countryman), Рамиля Искандер (Gabi Ibanescu), Илья Исаев (Nigel), Алексей Мясников (Darko), Алексей Костричкин (Karl), Антон Колесников (Luc), Тимофей Спивак (Victor Ibanescu), Алексей Войтюк (Bill), Елена Соловьева (Kate), Никита Прозоровский (Bela), Кирилл Туранский (Hostel Clerk), Денис Строев (Doctor; Helpful Passenger)-Сборы в США: $11 650
Сборы в России: $339 643
Мировая премьера: 21 января 2013
Премьера (РФ): 20 марта 2014, «Экспонента»
Релиз на DVD: 14 октября 2014, «Lizard Cinema Trade»
Релиз на Blu-ray: 14 октября 2014, «Lizard Cinema Trade»-Описание: Чарли Кантримен живет в США, спасаясь с помощью галлюциногенных веществ от скучной работы и тоски ничем не примечательного существования. Во время очередного наркотического трипа Чарли видит свою покойную мать, которая настоятельно рекомендует сыну съездить в Бухарест. Он не смеет ослушаться маму - и там герой фильма знакомится с девушкой своей мечты, а заодно - с местными криминальными порядками, из-за чего рискует в скором времени расстаться с жизнью.-Рейтинг:

Формат: Matroska
Видео: 1280x720 at 23.976 fps, x264@L4.1, ~5879 kbps avg
Aудио#1: Russian: 48 kHz, AC3, 3/2 (L,C,R,l,r) + LFE ch, ~448.00 kbps avg |Дубляж, R5|
Aудио#2: English: 48 kHz, AC3, 3/2 (L,C,R,l,r) + LFE ch, ~640.00 kbps avg-

Знаете ли Вы, что...

В одном из диалогов Дарко с Чарли он (Дарко) упоминает фильмы о Джеймсе Бонде. Мадс Миккельсен играл роль злодея в фильме «Казино Рояль» (2006).
Во время съемок Шайа ЛаБаф на самом деле принимал ЛСД, чтобы соответствующая сцена в фильме выглядела более натурально.
Когда Чарли Кантримен (Шайа ЛаБаф) едет из аэропорта, водитель такси в шутку называет его Робертом Редфордом. Намного позже, в эпизоде в предрассветном Бухаресте, после неприятностей в ночном клубе герой Руперта Гринта спрашивает Чарли о том, не попал ли он в ситуацию, похожую на события фильма «Три дня Кондора» (1975). Дело в том, что именно Роберт Редфорд исполнил главную роль в этом фильме. Более того, до фильма «Опасная иллюзия» Шайа ЛаБаф снялся в триллере «Грязные игры» (2012), где в качестве режиссера и главного героя выступил тот же самый Роберт Редфорд.
На ранней стадии создания фильма Шайа ЛаБаф покидал проект, и в этот период его роль предлагали Заку Эфрону, но в итоге ЛаБаф вернулся.

MI

General
Unique ID : 228597094282468473875051990352335209795 (0xABFA32EB9FFE7E1C9C5979B00F1C0543)
Complete name : Опасная иллюзия. .mkv
Format : Matroska
Format version : Version 4 / Version 2
File size : 5.14 GiB
Duration : 1h 43mn
Overall bit rate : 7 108 Kbps
Movie name : Tonik
Encoded date : UTC 2014-10-13 18:23:05
Writing application : mkvmerge v7.1.0 ('Good Love') 64bit built on Jul 27 2014 13:06:55
Writing library : libebml v1.3.0 + libmatroska v1.4.1
Video
ID : 1
Format : AVC
Format/Info : Advanced Video Codec
Format profile : High@L4.1
Format settings, CABAC : Yes
Format settings, ReFrames : 9 frames
Codec ID : V_MPEG4/ISO/AVC
Duration : 1h 43mn
Bit rate : 5 879 Kbps
Width : 1 280 pixels
Height : 720 pixels
Display aspect ratio : 16:9
Frame rate mode : Constant
Frame rate : 23.976 fps
Color space : YUV
Chroma subsampling : 4:2:0
Bit depth : 8 bits
Scan type : Progressive
Bits/(Pixel*Frame) : 0.266
Stream size : 4.25 GiB (83%)
Writing library : x264 core 140 r2377+40 929f149 tMod [8-bit@4:2:0 X86_64]
Encoding settings : cabac=1 / ref=9 / deblock=1:-3:-3 / analyse=0x3:0x113 / me=umh / subme=11 / psy=1 / fade_compensate=0.00 / psy_rd=1.10:0.00 / mixed_ref=1 / me_range=32 / chroma_me=1 / trellis=2 / 8x8dct=1 / cqm=0 / deadzone=21,11 / fast_pskip=0 / chroma_qp_offset=-2 / threads=18 / lookahead_threads=3 / sliced_threads=0 / nr=0 / decimate=0 / interlaced=0 / bluray_compat=0 / constrained_intra=0 / fgo=0 / bframes=8 / b_pyramid=2 / b_adapt=2 / b_bias=0 / direct=3 / weightb=1 / open_gop=0 / weightp=2 / keyint=240 / keyint_min=24 / scenecut=40 / intra_refresh=0 / rc=crf / mbtree=0 / crf=17.2000 / qcomp=0.70 / qpmin=0:0:0 / qpmax=69:69:69 / qpstep=4 / ip_ratio=1.20 / pb_ratio=1.20 / aq=4:0.90 / aq-sensitivity=10.00 / aq-factor=1.00:1.00:1.00 / aq2=0 / aq3=0
Language : English
Default : Yes
Forced : No
Audio #1
ID : 2
Format : AC-3
Format/Info : Audio Coding 3
Mode extension : CM (complete main)
Format settings, Endianness : Big
Codec ID : A_AC3
Duration : 1h 43mn
Bit rate mode : Constant
Bit rate : 448 Kbps
Channel(s) : 6 channels
Channel positions : Front: L C R, Side: L R, LFE
Sampling rate : 48.0 KHz
Bit depth : 16 bits
Compression mode : Lossy
Stream size : 332 MiB (6%)
Language : Russian
Default : Yes
Forced : No
Audio #2
ID : 3
Format : AC-3
Format/Info : Audio Coding 3
Mode extension : CM (complete main)
Format settings, Endianness : Big
Codec ID : A_AC3
Duration : 1h 43mn
Bit rate mode : Constant
Bit rate : 640 Kbps
Channel(s) : 6 channels
Channel positions : Front: L C R, Side: L R, LFE
Sampling rate : 48.0 KHz
Bit depth : 16 bits
Compression mode : Lossy
Stream size : 474 MiB (9%)
Language : English
Default : No
Forced : No
Text #1
ID : 4
Format : UTF-8
Codec ID : S_TEXT/UTF8
Codec ID/Info : UTF-8 Plain Text
Language : Russian
Default : No
Forced : No
Text #2
ID : 5
Format : UTF-8
Codec ID : S_TEXT/UTF8
Codec ID/Info : UTF-8 Plain Text
Language : English
Default : No
Forced : No

Скриншоты

-
[Профиль] [ЛС]
Кто просматривает тему:

Форум Тема Автор Размер
Chanson (Шансон) VA - Опасные Связи (Выпуск Седьмой) - 2015, MP3, 256 kbps Magnat 726 MB
Animal Planet Animal Planet: Самые опасные змеи с Найджелом Марвином / Ten Deadliest Snakes with Nigel Marven [сезон 1 серии 1-4 из 4] (Алекс Минтон) [2014 г., Документальный, природа, флора, фауна, HDTVRip 720p] skorpionN 6.33 GB
Работа с носителями информации MyDisk 2.0 x86+x64 [2012, ENG] (безопасное извлечение USB/HDD-дисков) (авторская раздача) TorrentFilm 672 KB
S.T.A.L.K.E.R. S.T.A.L.K.E.R.: Call of Pripyat - Опасный Вирус [Repack] [Ru] (2015) (1.6.02) TorrentFilm 3.02 GB
Отечественные cериалы Агент национальной безопасности [S01-05] (1999-2004) DVDRip Russian Mafia 39.32 GB
Фантастика и фэнтези Анатолий Половинкин – Опасный груз или А-44 (2016) MP3 Swager 387 MB
Фильмы 2001-2005 года Антимонополия / Опасная правда / Antitrust (Питер Хауит / Peter Howitt) [2001 г., триллер, драма, криминал, HDTVRip] 2 * MVO + original + subs sergej644 2.18 GB
Разное Безопасность в сети - Методы взлома и защиты (2015) PCRec sergej644 1021 MB
Показать сообщения:    

Текущее время: Сегодня 06:12

Часовой пояс: GMT



Вы не можете начинать темы
Вы не можете отвечать на сообщения
Вы не можете редактировать свои сообщения
Вы не можете удалять свои сообщения
Вы не можете голосовать в опросах
Вы не можете прикреплять файлы к сообщениям
Вы не можете скачивать файлы