Он – дракон (Индар Джендубаев) [2015, Россия, Фэнтези, BDRip 720p]

 
Автор Сообщение

TorrentFilm ®

Пол:

Стаж: 2 года

Сообщений: 7741



Награды: Нет

Торрент-статистика

Создавать темы 09-Фев-2016 00:08

[Цитировать]

Он – дракон
«Любить страшно»
- Год выпуска: 2015
Выпущено: Россия / Базелевс Продакшн
Жанр: фэнтези
Продолжительность: 01:46:54
Перевод: Не требуется
Оригинальная аудиодорожка: русский
Cубтитры: Нет
Режиссёр: Индар Джендубаев
В ролях: Мария Поезжаева (Мирослава), Матвей Лыков (Арман), Станислав Любшин (князь), Иева Андреевайте (Ярослава), Петр Романов (Игорь), Андрей Лебединский (Кормчий), Марта Тимофеева (дочь Миры и Армана), Иво Господинов (Арман мальчик), Егор Зубарчук (отец Армана), Виктория Рунцова (невеста 1), Анастасия Дубровина (невеста 2), Алена Чехова (невеста 3)
Описание: В разгар свадьбы княжну Мирославу похищает дракон, унося в свой замок на острове. В прошлом остались родные, жених, теперь только каменный плен в компании прекрасного Армана… но кто он и как оказался на острове? Мира поймет это слишком поздно: любовь к нему, человеку-дракону, откроет ей горькую истину — любить страшно.- -Качество видео: BDRip 720p
Формат видео: MKV
Видео: MPEG-4 AVC Video 4152 kbps 1280x544 / 24,000 fps / 2.35:1 / High Profile 4.1
Аудио: Русский: 48 kHz, DTS, 3/2 (L,C,R,l,r) + LFE ch, ~1510.00 kbps avg

Дополнительная информация о раздачеИсходник

ON_DRAKON_BD_RUS_BLUEBIRD

MediaInfo / Log.x264

Уникальный идентификатор                 : 251045800092808973094065114782558933812 (0xBCDDA991CF72A884AF2239F4E0E55334)
Полное имя                               : E:\V.temp\ON_DRAKON_BD_RUS_BLUEBIRD\On.Drakon.2015.BluRay.720p.DTS.x264-L.mkv
Формат                                   : Matroska
Версия формата                           : Version 4 / Version 2
Размер файла                             : 4,24 Гбайт
Продолжительность                        : 1 ч. 47 м.
Общий поток                              : 5664 Кбит/сек
Название фильма                          : On.Drakon.2015.BluRay.720p.DTS.x264-L
Дата кодирования                         : UTC 2016-02-05 07:38:24
Программа кодирования                    : mkvmerge v8.3.0 ('Over the Horizon') 32bit
Библиотека кодирования                   : libebml v1.3.1 + libmatroska v1.4.2
Обложка                                  : Yes
Attachments                              : cover.jpg
Видео
Идентификатор                            : 1
Формат                                   : AVC
Формат/Информация                        : Advanced Video Codec
Профиль формата                          : High@L4.1
Параметр CABAC формата                   : Да
Параметр ReFrames формата                : 12 кадров
Идентификатор кодека                     : V_MPEG4/ISO/AVC
Продолжительность                        : 1 ч. 47 м.
Битрейт                                  : 4152 Кбит/сек
Ширина                                   : 1280 пикселей
Высота                                   : 544 пикселя
Соотношение сторон                       : 2,35:1
Режим частоты кадров                     : Постоянный
Частота кадров                           : 24,000 кадра/сек
Цветовое пространство                    : YUV
Субдискретизация насыщенности            : 4:2:0
Битовая глубина                          : 8 бит
Тип развёртки                            : Прогрессивная
Бит/(Пиксели*Кадры)                      : 0.248
Размер потока                            : 3,11 Гбайт (73%)
Заголовок                                : On.Drakon.2015.BluRay.720p.DTS.x264-L
Библиотека кодирования                   : x264 core 146 r2538 121396c
Настройки программы                      : cabac=1 / ref=12 / deblock=1:-2:-1 / analyse=0x3:0x133 / me=umh / subme=11 / psy=1 / psy_rd=1.05:0.10 / mixed_ref=1 / me_range=48 / chroma_me=1 / trellis=2 / 8x8dct=1 / cqm=0 / deadzone=21,11 / fast_pskip=0 / chroma_qp_offset=-4 / threads=6 / lookahead_threads=1 / sliced_threads=0 / nr=0 / decimate=1 / interlaced=0 / bluray_compat=0 / constrained_intra=0 / bframes=11 / b_pyramid=2 / b_adapt=2 / b_bias=0 / direct=1 / weightb=1 / open_gop=0 / weightp=2 / keyint=230 / keyint_min=21 / scenecut=40 / intra_refresh=0 / rc_lookahead=60 / rc=crf / mbtree=0 / crf=16.5 / qcomp=0.70 / qpmin=0 / qpmax=69 / qpstep=4 / vbv_maxrate=30000 / vbv_bufsize=40000 / crf_max=0.0 / nal_hrd=none / filler=0 / ip_ratio=1.35 / pb_ratio=1.25 / aq=2:0.90
Язык                                     : English
Default                                  : Да
Forced                                   : Нет
Аудио
Идентификатор                            : 2
Формат                                   : DTS
Формат/Информация                        : Digital Theater Systems
Режим                                    : 16
Параметр Endianness формата              : Big
Идентификатор кодека                     : A_DTS
Продолжительность                        : 1 ч. 47 м.
Вид битрейта                             : Постоянный
Битрейт                                  : 1510 Кбит/сек
Каналы                                   : 6 каналов
Расположение каналов                     : Front: L C R, Side: L R, LFE
Частота                                  : 48,0 КГц
Частота кадров                           : 93,750 кадра/сек (512 spf)
Битовая глубина                          : 24 бит
Метод сжатия                             : С потерями
Размер потока                            : 1,13 Гбайт (27%)
Заголовок                                : DTS5.1@1510kbps
Язык                                     : Russian
Default                                  : Да
Forced                                   : Нет
Меню
00:00:00.000                             : en:00:00:00.000
00:08:32.042                             : en:00:08:32.042
00:17:11.583                             : en:00:17:11.583
00:26:33.875                             : en:00:26:33.875
00:30:51.333                             : en:00:30:51.333
00:42:29.917                             : en:00:42:29.917
00:53:36.042                             : en:00:53:36.042
01:03:58.083                             : en:01:03:58.083
01:09:32.167                             : en:01:09:32.167
01:15:17.750                             : en:01:15:17.750
01:21:58.833                             : en:01:21:58.833
01:35:46.000                             : en:01:35:46.000
x264 [info]: frame I:1235  Avg QP:12.79  size: 91754  PSNR Mean Y:51.88 U:54.19 V:54.74 Avg:52.54 Global:51.23
x264 [info]: frame P:34516 Avg QP:13.95  size: 39274  PSNR Mean Y:51.26 U:53.23 V:53.90 Avg:51.82 Global:50.26
x264 [info]: frame B:118439 Avg QP:16.01  size: 15747  PSNR Mean Y:50.50 U:52.28 V:53.12 Avg:51.00 Global:49.34
-
[Профиль] [ЛС]
Кто просматривает тему:

Показать сообщения:    

Текущее время: Сегодня 10:08

Часовой пояс: GMT



Вы не можете начинать темы
Вы не можете отвечать на сообщения
Вы не можете редактировать свои сообщения
Вы не можете удалять свои сообщения
Вы не можете голосовать в опросах
Вы не можете прикреплять файлы к сообщениям
Вы не можете скачивать файлы