Он – дракон (2015) BDRip 720p | Лицензия

 
Автор Сообщение

BOSS ®

Пол:

Стаж: 2 года 2 месяца

Сообщений: 3751

Откуда: ODESSA



Награды: 20 (Подробнее)

Top Keeper 3 (Количество: 1) Top Releaser 4 (Количество: 1) Top Seeder 2 (Количество: 1)
Торрент-статистика

Создавать темы 05-Фев-2016 05:48

[Цитировать]

Производство: Россия / Базелевс Продакшн
Жанр: фэнтези
Режиссер: Индар Джендубаев
Продюсер: Тимур Бекмамбетов, Наталья Смирнова, Игорь Цай
Актеры: Мария Поезжаева, Матвей Лыков, Станислав Любшин, Иева Андреевайте, Петр Романов, Андрей Лебединский, Марта Тимофеева, Иво Господинов, Егор Зубарчук, Виктория Рунцова
Описание:
В разгар свадьбы княжну Мирославу похищает дракон, унося в свой замок на острове. В прошлом остались родные, жених, теперь только каменный плен в компании прекрасного Армана… но кто он и как оказался на острове? Мира поймет это слишком поздно: любовь к нему, человеку-дракону, откроет ей горькую истину — любить страшно.

Дата мировой премьеры: 4 декабря 2015
Дата российской премьеры: 3 декабря 2015, «Bazelevs Distribution» 3D
Релиз от: hdclub
Продолжительность: 01:47:04
Качество: BDRip 720p
Перевод: Не требуется (Русский, Лицензия BD RUS)
Субтитры: Отсутствуют
Видео: AVC/H.264, 1280x544, (2.35:1), 5 345 Kbps, 24 fps
Аудио: AC3, 6 ch, 640 kbps - Русский
Аудио: DTS, 6 ch, 1509 kbps - Русский

MediaInfo:

General
Unique ID : 197772926704903831303865075676218474900 (0x94C9AE1FD1776579A1B6BA2BB0914194)
Complete name : On.Drakon.2015.720p.Blu-ray.Rus-HDClub.mkv
Format : Matroska
Format version : Version 2
File size : 5.72 GiB
Duration : 1h 47mn
Overall bit rate : 7 647 Kbps
Movie name : Release for HDClub
Encoded date : UTC 2016-02-05 01:09:44
Writing application : mkvmerge v8.3.0 ('Over the Horizon') 64bit
Writing library : libebml v1.3.1 + libmatroska v1.4.2
DURATION : 01:47:04.544000000
NUMBER_OF_FRAMES : 200767
NUMBER_OF_BYTES : 513963520
_STATISTICS_WRITING_APP : mkvmerge v8.3.0 ('Over the Horizon') 64bit
_STATISTICS_WRITING_DATE_UTC : 2016-02-05 01:09:44
_STATISTICS_TAGS : BPS DURATION NUMBER_OF_FRAMES NUMBER_OF_BYTES
Video
ID : 1
Format : AVC
Format/Info : Advanced Video Codec
Format profile : High@L4.1
Format settings, CABAC : Yes
Format settings, ReFrames : 12 frames
Codec ID : V_MPEG4/ISO/AVC
Duration : 1h 47mn
Bit rate : 5 345 Kbps
Width : 1 280 pixels
Height : 544 pixels
Display aspect ratio : 2.35:1
Frame rate mode : Constant
Frame rate : 24.000 fps
Color space : YUV
Chroma subsampling : 4:2:0
Bit depth : 8 bits
Scan type : Progressive
Bits/(Pixel*Frame) : 0.320
Stream size : 4.00 GiB (70%)
Title : On.Drakon.2015.720p.Blu-ray.Rus-HDClub
Writing library : x264 core 142 r2431+42 c69a006 tMod [8-bit@all X86_64]
Encoding settings : cabac=1 / ref=12 / deblock=1:-3:-3 / analyse=0x3:0x133 / me=umh / subme=11 / psy=1 / fade_compensate=0.00 / psy_rd=1.00:0.00 / mixed_ref=1 / me_range=48 / chroma_me=1 / trellis=2 / 8x8dct=1 / cqm=0 / deadzone=21,11 / fast_pskip=0 / chroma_qp_offset=-2 / threads=18 / lookahead_threads=3 / sliced_threads=0 / nr=0 / decimate=1 / interlaced=0 / bluray_compat=0 / constrained_intra=0 / fgo=0 / bframes=8 / b_pyramid=2 / b_adapt=2 / b_bias=0 / direct=1 / weightb=1 / open_gop=0 / weightp=2 / keyint=240 / keyint_min=24 / scenecut=40 / intra_refresh=0 / rc_lookahead=60 / rc=crf / mbtree=0 / crf=14.7000 / qcomp=0.60 / qpmin=0:0:0 / qpmax=69:69:69 / qpstep=4 / vbv_maxrate=50000 / vbv_bufsize=62500 / crf_max=0.0 / nal_hrd=none / filler=0 / ip_ratio=1.35 / pb_ratio=1.25 / aq=1:0.80 / aq-sensitivity=10.00 / aq-factor=1.00:1.00:1.00 / aq2=0 / aq3=0
Language : Russian
Default : Yes
Forced : No
DURATION : 01:47:04.584000000
NUMBER_OF_FRAMES : 154190
NUMBER_OF_BYTES : 4412791133
_STATISTICS_WRITING_APP : mkvmerge v8.3.0 ('Over the Horizon') 64bit
_STATISTICS_WRITING_DATE_UTC : 2016-02-05 01:09:44
_STATISTICS_TAGS : BPS DURATION NUMBER_OF_FRAMES NUMBER_OF_BYTES
Audio #1
ID : 2
Format : DTS
Format/Info : Digital Theater Systems
Mode : 16
Format settings, Endianness : Big
Codec ID : A_DTS
Duration : 1h 47mn
Bit rate mode : Constant
Bit rate : 1 510 Kbps
Channel(s) : 6 channels
Channel positions : Front: L C R, Side: L R, LFE
Sampling rate : 48.0 KHz
Bit depth : 24 bits
Compression mode : Lossy
Stream size : 1.13 GiB (20%)
Title : DTS 5.1 @ 1509 kbps - Original BD RUS
Language : Russian
Default : Yes
Forced : No
Audio #2
ID : 3
Format : AC-3
Format/Info : Audio Coding 3
Mode extension : CM (complete main)
Format settings, Endianness : Big
Codec ID : A_AC3
Duration : 1h 47mn
Bit rate mode : Constant
Bit rate : 640 Kbps
Channel(s) : 6 channels
Channel positions : Front: L C R, Side: L R, LFE
Sampling rate : 48.0 KHz
Bit depth : 16 bits
Compression mode : Lossy
Stream size : 490 MiB (8%)
Title : DD 5.1 @ 640 kbps - Original BD RUS
Language : Russian
Default : No
Forced : No
Menu
00:00:00.000 : ru:
00:08:32.041 : ru:
00:17:11.583 : ru:
00:26:33.875 : ru:
00:30:51.333 : ru:
00:42:29.916 : ru:
00:53:36.041 : ru:
01:03:58.083 : ru:
01:09:32.166 : ru:
01:15:17.750 : ru:
01:21:58.833 : ru:
01:35:46.000 : ru:
Скриншоты:

Время раздачи: 24/7
[Профиль] [ЛС]
Кто просматривает тему:

Показать сообщения:    

Текущее время: Сегодня 20:43

Часовой пояс: GMT



Вы не можете начинать темы
Вы не можете отвечать на сообщения
Вы не можете редактировать свои сообщения
Вы не можете удалять свои сообщения
Вы не можете голосовать в опросах
Вы не можете прикреплять файлы к сообщениям
Вы не можете скачивать файлы