Оно / It Follows (2014) BDRip 720p | L2

 
Автор Сообщение

достали все ®

Пол:

Стаж: 1 год 8 месяцев

Сообщений: 6545



Награды: 12 (Подробнее)

Mega Releaser 3 (Количество: 1) Top Releaser 2 (Количество: 1) Mega Seeder 5 (Количество: 1)
Торрент-статистика

Создавать темы 02-Июн-2015 21:53

[Цитировать]

Информация о фильме
Название: Оно / Оно следует за тобой
Оригинальное название: It Follows
Год выхода: 2014
Жанр: ужасы, детектив
Режиссер: Дэвид Роберт Митчелл
В ролях: Кейр Гилкрист, Carollette Phillips, Лорен Басс, Оливия Луккарди, Лили Сепе, Майка Монро, Джейк Вири, Дэниэл Дзоватто, Чарльз Гертнер, Бэйли Спрай
О фильме: После сексуальной связи 19-летнюю девушку по имени Джей начинают мучать странные видения и непреодолимое чувство того, что кто-то или что-то за ней следит…

Выпущено: США / Northern Lights Films, Animal Kingdom, Two Flints
Продолжительность: 01:40:13
Перевод: Любительский (двухголосый, закадровый) - Студия Пиратского дубляжа
Файл
Качество: BDRip 720p
Формат: MKV
Видео: MPEG4/AVC, 4733 Кбит/сек, 1280х536 (2.40:1), 23.976 кадров/сек
Аудио 1: AC3, 6 каналов, 448 Кбит/сек | Русский
Аудио 2: AC3, 6 каналов, 640 Кбит/сек | Английский
Субтитры: Русские, английские
Навигация по главам: Есть

MediaInfo:

Общее
Уникальный идентификатор : 255148596935233533426624196694985240232 (0xBFF3D5124EA408AA8F93465333196EA8)
Полное имя : It Follows. (2014) BDRip 720p.mkv
Формат : Matroska
Версия формата : Version 2
Размер файла : 4,07 Гбайт
Продолжительность : 1 ч. 40 м.
Общий поток : 5821 Кбит/сек
Название фильма : It Follows. 2014
Дата кодирования : UTC 2015-06-02 12:46:57
Программа кодирования : mkvmerge v5.8.0 ('No Sleep / Pillow') built on Sep 2 2012 15:37:04
Библиотека кодирования : libebml v1.2.3 + libmatroska v1.3.0
Видео
Идентификатор : 1
Формат : AVC
Формат/Информация : Advanced Video Codec
Профиль формата : High@L4.1
Параметр CABAC формата : Да
Параметр ReFrames формата : 5 кадров
Идентификатор кодека : V_MPEG4/ISO/AVC
Продолжительность : 1 ч. 40 м.
Битрейт : 4733 Кбит/сек
Ширина : 1280 пикселей
Высота : 536 пикселей
Соотношение сторон : 2,40:1
Режим частоты кадров : Постоянный
Частота кадров : 23,976 кадра/сек
Цветовое пространство : YUV
Субдискретизация насыщенности : 4:2:0
Битовая глубина : 8 бит
Тип развёртки : Прогрессивная
Бит/(Пиксели*Кадры) : 0.288
Размер потока : 3,23 Гбайт (79%)
Заголовок : AMIABLE
Библиотека кодирования : x264 core 146 r2538 121396c
Настройки программы : cabac=1 / ref=5 / deblock=1:-3:-3 / analyse=0x3:0x113 / me=umh / subme=8 / psy=1 / psy_rd=1.00:0.00 / mixed_ref=1 / me_range=16 / chroma_me=1 / trellis=1 / 8x8dct=1 / cqm=0 / deadzone=21,11 / fast_pskip=1 / chroma_qp_offset=-2 / threads=18 / lookahead_threads=3 / sliced_threads=0 / nr=0 / decimate=1 / interlaced=0 / bluray_compat=0 / constrained_intra=0 / bframes=3 / b_pyramid=2 / b_adapt=2 / b_bias=0 / direct=3 / weightb=1 / open_gop=0 / weightp=2 / keyint=240 / keyint_min=24 / scenecut=40 / intra_refresh=0 / rc_lookahead=50 / rc=2pass / mbtree=1 / bitrate=4733 / ratetol=1.0 / qcomp=0.60 / qpmin=0 / qpmax=69 / qpstep=4 / cplxblur=20.0 / qblur=0.5 / ip_ratio=1.40 / aq=1:1.00
Язык : English
Default : Да
Forced : Нет
Аудио #1
Идентификатор : 2
Формат : AC-3
Формат/Информация : Audio Coding 3
Расширение режима : CM (complete main)
Параметр Endianness формата : Big
Идентификатор кодека : A_AC3
Продолжительность : 1 ч. 40 м.
Вид битрейта : Постоянный
Битрейт : 448 Кбит/сек
Каналы : 6 каналов
Расположение каналов : Front: L C R, Side: L R, LFE
Частота : 48,0 КГц
Битовая глубина : 16 бит
Метод сжатия : С потерями
Размер потока : 321 Мбайт (8%)
Заголовок : L2 | Студия Пиратского дубляжа
Язык : Russian
Default : Да
Forced : Нет
Аудио #2
Идентификатор : 3
Формат : AC-3
Формат/Информация : Audio Coding 3
Расширение режима : CM (complete main)
Параметр Endianness формата : Big
Идентификатор кодека : A_AC3
Продолжительность : 1 ч. 40 м.
Вид битрейта : Постоянный
Битрейт : 640 Кбит/сек
Каналы : 6 каналов
Расположение каналов : Front: L C R, Side: L R, LFE
Частота : 48,0 КГц
Битовая глубина : 16 бит
Метод сжатия : С потерями
Размер потока : 459 Мбайт (11%)
Заголовок : Original
Язык : English
Default : Нет
Forced : Нет
Текст #1
Идентификатор : 4
Формат : UTF-8
Идентификатор кодека : S_TEXT/UTF8
Идентификатор кодека/Информация : UTF-8 Plain Text
Заголовок : Full
Язык : Russian
Default : Нет
Forced : Нет
Текст #2
Идентификатор : 5
Формат : UTF-8
Идентификатор кодека : S_TEXT/UTF8
Идентификатор кодека/Информация : UTF-8 Plain Text
Заголовок : Full
Язык : English
Default : Нет
Forced : Нет
Меню
00:00:00.000 : en:00:00:00.000
00:03:53.150 : en:00:03:53.150
00:08:46.901 : en:00:08:46.901
00:13:58.671 : en:00:13:58.671
00:22:05.115 : en:00:22:05.115
00:27:20.931 : en:00:27:20.931
00:32:12.514 : en:00:32:12.514
00:44:38.467 : en:00:44:38.467
00:49:14.994 : en:00:49:14.994
00:53:58.777 : en:00:53:58.777
01:02:48.056 : en:01:02:48.056
01:07:45.019 : en:01:07:45.019
01:16:13.485 : en:01:16:13.485
01:26:19.174 : en:01:26:19.174
01:31:18.681 : en:01:31:18.681
01:35:42.195 : en:01:35:42.195
Релиз от:
[Профиль] [ЛС]
Кто просматривает тему:

Форум Тема Автор Размер
Фильмы 2014 года Оно / It Follows (2014) HDRip | iTunes BOSS 1.37 GB
Фильмы 2014 года Оно / It Follows (2014) HDRip | L2 достали все 1.46 GB
Показать сообщения:    

Текущее время: Сегодня 22:35

Часовой пояс: GMT



Вы не можете начинать темы
Вы не можете отвечать на сообщения
Вы не можете редактировать свои сообщения
Вы не можете удалять свои сообщения
Вы не можете голосовать в опросах
Вы не можете прикреплять файлы к сообщениям
Вы не можете скачивать файлы