Они сражались за Родину (Сергей Бондарчук)[1975,Драма, военный, история,HDTVRip 720p] полная версия

 
Автор Сообщение

adeei ®

Пол:

Стаж: 1 год 8 месяцев

Сообщений: 63

Откуда: Россия Иваново



Награды: 3 (Подробнее)

Mega Seeder 2 (Количество: 1) Mega Seeder 3 (Количество: 1) Mega Seeder 1 (Количество: 1)
Торрент-статистика

Создавать темы 08-Май-2015 21:04

[Цитировать]

Они сражались за Родину Год выхода: 1975
Жанр: Драма, военный, история
Страна: СССР
Студия: Мосфильм
Продолжительность: 02:30:28
Перевод: Не требуется-Режиссер: Сергей Бондарчук-В ролях: Василий Шукшин, Вячеслав Тихонов, Сергей Бондарчук, Георгий Бурков, Юрий Никулин, Иван Лапиков, Николай Губенко, Андрей Ростоцкий, Николай Волков, Николай Шутько, Евгений Самойлов, Нонна Мордюкова, Иннокентий Смоктуновский, Ангелина Степанова, Ирина Скобцева, Татьяна Божок, Лидия Федосеева-Шукшина, Даниил Ильченко, Алексей Ванин, Николай Горлов, Геннадий Сафронов, Борис Никифоров-Описание: По мотивам одноимённого произведения М.А. Шолохова. Июль 1942 года. На подступах к Сталинграду обескровленные, измотанные советские войска ведут тяжёлые оборонительные бои, неся огромные потери… Они не сломлены неудачами и не потеряли веры в победу. Временами им кажется, что нет никакой войны. На дороге - широкие следы танковых гусениц, чётко отпечатанные в серой пыли. А по сторонам – словно вымершая от зноя степь: устало полёгшие травы, тускло блестящие солончаки, голубое и трепетное марево над дальними курганами. В абсурдном столкновении тёплой дышащей земли и бесчеловечной машины войны - сильнейшее библейское обобщение, метафора противостояния вечной жизни тёмным силам зла.- -Формат: MKV
Качество: HDTVRip (720p)
Видео: MPEG-4 AVC, 4114 Кбит/с, 1122x720
Звук: Русский, AC3, 2 ch, 384 кб/с-

Награды

• В 1975 г к 30-летию Победы фильм был номинирован от СССР на золотую пальмовую ветвь Каннского кинофестиваля. Из-за запрета на номинирование "Зеркала" Андрея Тарковского жюри кинофестиваля прокатило один из лучших фильмов о Великой Отечественной войне.
• Лучший фильм года, Василий Шукшин - лучший актер года по опросу журнала "Советский экран"
• Премия Союза антифашистских борцов Чехословакии на XX МКФ в Карловых Варах, 1976
• Премия за режиссёрскую работу С. Бондарчуку и премия за лучшее исполнение 27 мужских ролей солдат на XIV МКФ в Панаме, 1976
• Государственная премия РСФСР им. бр. Васильевых режиссёру С. Бондарчуку и оператору В. Юсову, 1977
• Премия Ленинского комсомола композитору В. Овчинникову, 1977

Медио инфо

raw [info]: 1122x720p 1:1 @ 25/1 fps (cfr)
x264 [info]: using SAR=1/1
x264 [info]: using cpu capabilities: MMX2 SSE2Fast SSSE3 SSE4.2 AVX
x264 [info]: profile High, level 4.1
x264 [info]: frame I:1166 Avg QP:16.33 size:130101
x264 [info]: frame P:59910 Avg QP:19.80 size: 44116
x264 [info]: frame B:164639 Avg QP:21.35 size: 11230
=============================================================================================================
Общее
Уникальный идентификатор : 200107928434795402438475723058995963509 (0x968B629912537C47BA3923BC4E42A675)
Полное имя : D:Они сражались за родину_1975-HDTVRip.720.mkv
Формат : Matroska
Версия формата : Version 2
Размер файла : 4,73 Гбайт
Продолжительность : 2 ч. 30 м.
Общий поток : 4500 Кбит/сек
Дата кодирования : UTC 2015-05-08 18:18:04
Программа кодирования : mkvmerge v5.8.0 ('No Sleep / Pillow') built on Sep 2 2012 15:37:04
Библиотека кодирования : libebml v1.2.3 + libmatroska v1.3.0
Видео
Идентификатор : 1
Формат : AVC
Формат/Информация : Advanced Video Codec
Профиль формата : High@L4.1
Параметр CABAC формата : Да
Параметр ReFrames формата : 10 кадров
Идентификатор кодека : V_MPEG4/ISO/AVC
Продолжительность : 2 ч. 30 м.
Битрейт : 4114 Кбит/сек
Ширина : 1122 пикселя
Высота : 720 пикселей
Соотношение сторон : 1,558
Режим частоты кадров : Постоянный
Частота кадров : 25,000 кадров/сек
Цветовое пространство : YUV
Субдискретизация насыщенности : 4:2:0
Битовая глубина : 8 бит
Тип развёртки : Прогрессивная
Бит/(Пиксели*Кадры) : 0.204
Размер потока : 4,23 Гбайт (89%)
Библиотека кодирования : x264 core 146 r2538 121396c
Настройки программы : cabac=1 / ref=10 / deblock=1:-3:-3 / analyse=0x3:0x113 / me=umh / subme=10 / psy=1 / psy_rd=1.05:0.10 / mixed_ref=1 / me_range=32 / chroma_me=1 / trellis=2 / 8x8dct=1 / cqm=0 / deadzone=21,11 / fast_pskip=0 / chroma_qp_offset=-3 / threads=12 / lookahead_threads=2 / sliced_threads=0 / nr=0 / decimate=0 / interlaced=0 / bluray_compat=0 / constrained_intra=0 / bframes=8 / b_pyramid=2 / b_adapt=2 / b_bias=0 / direct=3 / weightb=1 / open_gop=0 / weightp=2 / keyint=250 / keyint_min=25 / scenecut=40 / intra_refresh=0 / rc=2pass / mbtree=0 / bitrate=4114 / ratetol=1.0 / qcomp=0.65 / qpmin=0 / qpmax=39 / qpstep=4 / cplxblur=20.0 / qblur=0.5 / ip_ratio=1.40 / pb_ratio=1.30 / aq=1:1.00
Язык : English
Default : Да
Forced : Нет
Основные цвета : BT.709
Характеристики трансфера : BT.709
Коэффициенты матрицы : BT.709
Аудио
Идентификатор : 2
Формат : AC-3
Формат/Информация : Audio Coding 3
Расширение режима : CM (complete main)
Параметр Endianness формата : Big
Идентификатор кодека : A_AC3
Продолжительность : 2 ч. 30 м.
Вид битрейта : Постоянный
Битрейт : 384 Кбит/сек
Каналы : 2 канала
Расположение каналов : Front: L R
Частота : 48,0 КГц
Битовая глубина : 16 бит
Метод сжатия : С потерями
Размер потока : 413 Мбайт (9%)
Язык : Russian
Default : Да
Forced : Нет

Скриншоты


- -
[Профиль] [ЛС]

Создавать темы 06-Авг-2015 22:00 (спустя 2 месяца 29 дней)

Топик был перенесен из форума Кино СССР в форум Кино СССР
sergej644
 
Кто просматривает тему:

Показать сообщения:    

Текущее время: Сегодня 03:21

Часовой пояс: GMT



Вы не можете начинать темы
Вы не можете отвечать на сообщения
Вы не можете редактировать свои сообщения
Вы не можете удалять свои сообщения
Вы не можете голосовать в опросах
Вы не можете прикреплять файлы к сообщениям
Вы не можете скачивать файлы