Они наблюдают / They're Watching (2016) WEB-DL 720p | L

 
Автор Сообщение

достали все ®

Пол:

Стаж: 1 год 8 месяцев

Сообщений: 6515



Награды: 12 (Подробнее)

Top Releaser 3 (Количество: 1) Mega Seeder 1 (Количество: 1) Mega Seeder 5 (Количество: 1)
Торрент-статистика

Создавать темы 06-Июн-2016 03:20

[Цитировать]

Название: Они наблюдают
Оригинальное название: They're Watching
Год выхода: 2016
Страна: США, Румыния
Студия: Best Served Cold Productions, Warsong Entertainment
Продолжительность: 01:34:11
Жанр: ужасы, триллер, комедия
Режиссер: Джей Лендер, Мика Райт
В ролях: Бриджид Брэнно, Крис Лемке, Кэрри Гензел, Дэвид Алпей, Дмитрий Дьяченко, Миа Фэйт, Кристиан Балинт, ...
Перевод: Любительский (многоголосый, закадровый) ViruseProject
О фильме: Съёмочная группа американского телешоу для съемок очередного эпизода приезжает в глухую деревню в Восточной Европе. Телевизионщики думают, что отсутствие привычного латте и бесплатного вайфая в гостинице — максимум неприятностей, которые их ожидают. Но на деле съемки оборачиваются кровавым кошмаром…

Кодек: MPEG-4 AVC
Качество: WEB-DL 720p
Видео: 1280x718, 3987 kbps, 23,976 fps
Аудио #1: AC-3, 6 ch, 384 kbps (Rus) - MVOL ViruseProject
Аудио #2: AC-3, 6 ch, 384 kbps (Eng)
Субтитры: Английские
Присутствует ненормативная лексика!

Дополнительная информация

Роли озвучивали: Елена Емельянова, Татьяна Романовская, Марина Видякина, Дмитрий Кравченко, Валерий Смекалов, Константин Федосеев
Перевод на русский язык: Евгений Шаров
Редактор текста: Анна Марченко

MediaInfo

Общее
Уникальный идентификатор : 239021991315408137185344894351394907425 (0xB3D1F606FD23C398965AB187BED2A521)
Полное имя : Они наблюдают (They're Watching) 2016 WEB-DL 720p.mkv
Формат : Matroska
Версия формата : Version 2
Размер файла : 3,19 Гбайт
Продолжительность : 1 ч. 34 м.
Общий поток : 4852 Кбит/сек
Дата кодирования : UTC 2016-04-13 23:15:52
Программа кодирования : mkvmerge v4.0.0 ('The Stars were mine') сборка от Jun 6 2010 16:18:42
Библиотека кодирования : libebml v1.0.0 + libmatroska v1.0.0
Видео
Идентификатор : 1
Формат : AVC
Формат/Информация : Advanced Video Codec
Профиль формата : High@L3.1
Параметр CABAC формата : Нет
Параметр ReFrames формата : 2 кадра
Идентификатор кодека : V_MPEG4/ISO/AVC
Продолжительность : 1 ч. 34 м.
Битрейт : 3987 Кбит/сек
Ширина : 1280 пикселей
Высота : 718 пикселей
Соотношение сторон : 16:9
Режим частоты кадров : Постоянный
Частота кадров : 23,976 кадра/сек
Цветовое пространство : YUV
Субдискретизация насыщенности : 4:2:0
Битовая глубина : 8 бит
Тип развёртки : Прогрессивная
Бит/(Пиксели*Кадры) : 0.181
Размер потока : 2,62 Гбайт (82%)
Язык : English
Default : Нет
Forced : Нет
Цветовой диапазон : Limited
Основные цвета : BT.709
Характеристики трансфера : BT.709
Коэффициенты матрицы : BT.709
Аудио #1
Идентификатор : 2
Формат : AC-3
Формат/Информация : Audio Coding 3
Расширение режима : CM (complete main)
Параметр Endianness формата : Big
Идентификатор кодека : A_AC3
Продолжительность : 1 ч. 34 м.
Вид битрейта : Постоянный
Битрейт : 384 Кбит/сек
Каналы : 6 каналов
Расположение каналов : Front: L C R, Side: L R, LFE
Частота : 48,0 КГц
Метод сжатия : С потерями
Размер потока : 259 Мбайт (8%)
Заголовок : MVOL ViruseProject
Язык : Russian
Default : Нет
Forced : Нет
Аудио #2
Идентификатор : 3
Формат : AC-3
Формат/Информация : Audio Coding 3
Расширение режима : CM (complete main)
Параметр Endianness формата : Big
Идентификатор кодека : A_AC3
Продолжительность : 1 ч. 34 м.
Вид битрейта : Постоянный
Битрейт : 384 Кбит/сек
Каналы : 6 каналов
Расположение каналов : Front: L C R, Side: L R, LFE
Частота : 48,0 КГц
Метод сжатия : С потерями
Размер потока : 259 Мбайт (8%)
Язык : English
Default : Нет
Forced : Нет
Текст
Идентификатор : 4
Формат : UTF-8
Идентификатор кодека : S_TEXT/UTF8
Идентификатор кодека/Информация : UTF-8 Plain Text
Язык : English
Default : Нет
Forced : Нет

[Профиль] [ЛС]
Кто просматривает тему:

Показать сообщения:    

Текущее время: Сегодня 20:08

Часовой пояс: GMT



Вы не можете начинать темы
Вы не можете отвечать на сообщения
Вы не можете редактировать свои сообщения
Вы не можете удалять свои сообщения
Вы не можете голосовать в опросах
Вы не можете прикреплять файлы к сообщениям
Вы не можете скачивать файлы