Онг Бак / Ong-bak (2003) BDRip 1080p | P2

 
Автор Сообщение

sergej644 ®

Пол:

Стаж: 4 года 11 месяцев

Сообщений: 6046

Откуда: Soviet Union



Награды: Нет

Торрент-статистика

Создавать темы 31-Окт-2014 15:14

[Цитировать]

--Онг Бак / Ong-bak (2003)
Информация о фильме
Название: Онг Бак
Оригинальное: Ong-bak
Год выхода: 2003
Страна: Тайланд
Жанр: Боевик, приключения, криминал, триллер
Продолжительность: 01:44:29
Перевод: Профессиональный (Двухголосый закадровый)
Режиссер: Прачья Пинкаю
В ролях:
Тони Джа, Петчтай Вонгкамлао, Пумвари Йодкамол, Сухао Понгвилай, Чумпхорн Тепфитак, Чатевут Ватчаракхун, Ваннакит Сириопут, Рунграви Баридзиндакул, Чаттхапонг Пантанаункул, Нудхапол Асавабхахин, Порнпимол Чокантхонг, Удом Чоунчеун, Бунсри Йинди, Арират Ратанакайткосол, Воравит Таночитсирикул, Чалонгсак Сиримахасан, Саванг Роднуч, Сутин Роднуч, Воранард Тантипидок, Сомьяй Джунмунри, Сомчай Мунма, Таворн Тонапан, Дэн Чупонг, Чейпорн Ганмунтри, Дон Фергюсон, Дэвид Исмалоун, Эрик Маркус Шуетз, Пол Гай, Ник Кара, Сюканая Конгкавонг, Панна Риттикрай-Сюжет фильма
В тайландской глубинке, жители деревушки Бан Нон Праду готовились к очередной праздничной церемонии чествования божества Онг Бака, который являлся хранителем покоя и благополучия всех местных жителей. Однако Бак Дон, отщепенец из банды Капитана, который промышлял тем, что торговал раритетными реликвиями национального достояния в Банкоке, украл голову местной святыни, ничуть ни заботясь о том, что гнев Бога может обречь на проклятие всё поселение. Сделал он это в отместку за то, что местный монах не согласился продать ему амулет, на который его высокопоставленный хозяин имел серьёзные виды. На собрании селян Ай Бак Тим, молодой парень, сирота, выросший при местном монастыре, клянётся вернуть голову Онг Бака, а вместе с ней покой и процветание в селение Бан Нон Праду...
-Файл
Кодек: x264
Формат: MKV
Качество: BDRip 1080p
Видео: MPEG-4 AVC (1.85:1) 1920x1040, 24.000 fps, 9990 kbps
Аудио: Dolby Digital (5.1) 16 bit, 48 kHz, 640 kbps (RUS)
Субтитры: SRT Русские, Английские--

MI & x264

General
Unique ID : 181135674557782567009566292397680226451 (0x884576433108743E83180B397F9FF093)
Format : Matroska
Format version : Version 2
File size : 7.75 GiB
Duration : 1h 44mn
Overall bit rate : 10.6 Mbps
Movie name : Онг Бак (2003) BDRip (1080p)
Encoded date : UTC 2013-04-11 11:36:00
Writing application : mkvmerge v5.8.0 ('No Sleep / Pillow') built on Sep 2 2012 15:37:04
Writing library : libebml v1.2.3 + libmatroska v1.3.0
Video
ID : 1
Format : AVC
Format/Info : Advanced Video Codec
Format profile : High@L4.1
Format settings, CABAC : Yes
Format settings, ReFrames : 4 frames
Codec ID : V_MPEG4/ISO/AVC
Duration : 1h 44mn
Bit rate : 9 990 Kbps
Width : 1 920 pixels
Height : 1 040 pixels
Display aspect ratio : 1.85:1
Frame rate mode : Constant
Frame rate : 24.000 fps
Color space : YUV
Chroma subsampling : 4:2:0
Bit depth : 8 bits
Scan type : Progressive
Bits/(Pixel*Frame) : 0.208
Stream size : 7.13 GiB (92%)
Title : Release by Alex260680
Writing library : x264 core 130 r2273 b3065e6
Encoding settings : cabac=1 / ref=4 / deblock=1:-2:-2 / analyse=0x3:0x133 / me=umh / subme=10 / psy=1 / psy_rd=1.00:0.10 / mixed_ref=1 / me_range=32 / chroma_me=1 / trellis=2 / 8x8dct=1 / cqm=0 / deadzone=21,11 / fast_pskip=0 / chroma_qp_offset=-3 / threads=12 / lookahead_threads=1 / sliced_threads=0 / nr=0 / decimate=0 / interlaced=0 / bluray_compat=0 / constrained_intra=0 / bframes=6 / b_pyramid=2 / b_adapt=2 / b_bias=0 / direct=3 / weightb=1 / open_gop=0 / weightp=2 / keyint=240 / keyint_min=24 / scenecut=40 / intra_refresh=0 / rc=2pass / mbtree=0 / bitrate=9990 / ratetol=1.0 / qcomp=0.60 / qpmin=0 / qpmax=69 / qpstep=4 / cplxblur=20.0 / qblur=0.5 / ip_ratio=1.40 / pb_ratio=1.30 / aq=1:0.80
Language : Thai
Default : Yes
Forced : No
Audio
ID : 2
Format : AC-3
Format/Info : Audio Coding 3
Mode extension : CM (complete main)
Format settings, Endianness : Big
Codec ID : A_AC3
Duration : 1h 44mn
Bit rate mode : Constant
Bit rate : 640 Kbps
Channel(s) : 6 channels
Channel positions : Front: L C R, Side: L R, LFE
Sampling rate : 48.0 KHz
Bit depth : 16 bits
Compression mode : Lossy
Stream size : 478 MiB (6%)
Title : DVO
Language : Russian
Default : Yes
Forced : No
Text #1
ID : 3
Format : UTF-8
Codec ID : S_TEXT/UTF8
Codec ID/Info : UTF-8 Plain Text
Language : Russian
Default : No
Forced : No
Text #2
ID : 4
Format : UTF-8
Codec ID : S_TEXT/UTF8
Codec ID/Info : UTF-8 Plain Text
Language : English
Default : No
Forced : No-x264 [info]: frame I:927 Avg QP:21.62 size:173710
x264 [info]: frame P:39003 Avg QP:23.84 size: 84974
x264 [info]: frame B:110550 Avg QP:26.05 size: 39324
ДополнительноИспользуемое программное обеспечение: "Eac3to", "XviD4PSP", "Sonic Foundry Soft Encode", "SupRip", "MKVToolNix"
-Скриншоты
-
[Профиль] [ЛС]
Кто просматривает тему:

Показать сообщения:    

Текущее время: Сегодня 13:03

Часовой пояс: GMT



Вы не можете начинать темы
Вы не можете отвечать на сообщения
Вы не можете редактировать свои сообщения
Вы не можете удалять свои сообщения
Вы не можете голосовать в опросах
Вы не можете прикреплять файлы к сообщениям
Вы не можете скачивать файлы