Она / Her (2013) BDRip 720p | Лицензия, L, A

 
Автор Сообщение

sergej644 ®

Пол:

Стаж: 4 года 11 месяцев

Сообщений: 6046

Откуда: Soviet Union



Награды: Нет

Торрент-статистика

Создавать темы 09-Фев-2015 18:10

[Цитировать]

Информация о фильме
Название: Она
Оригинальное название: Her
Год выхода: 2013
Жанр: Мелодрама, Драма, Фантастика
Режиссер: Спайк Джонс
В ролях: Хоакин Феникс, Эми Адамс, Руни Мара, Оливия Уайлд, Скарлетт Йоханссон, Линн А. Фридман, Лиза Рени Питтс, Гейб Гомез, Крис Прэтт, Артт Батлер, Мэй Линдстрём, Билл Хейдер, Кристен Уиг, Брайан Джонсон, Мэтт Летчер, Спайк Джонс
О фильме:
Теодор Твомбли работает в компании "Прекрасные Письма От Руки". Он пишет за других людей проникновенные письма о любви, о гордости, о привязанности и сотнях других вещей. Он - романтик, но сейчас он в депрессии. Он тяжело переживает разрыв с женой, но так и не решается подписать бумаги о разводе. Волею случая Теодор покупает инновационную разработку Операционную Систему продвинутого уровня с искусственным интеллектом. ИИ зовут Саманта. Со временем Саманта и Теодор идут на сближение и между ними возникает такое неизведанное для многих (а уж для ПО тем более) - любовь...

Страна: США
Продолжительность: 02:05:50
Перевод: Дублированный (BD RUS), Многоголосый закадровый (Студия Гараж), авторский одноголосый(А. Матвеев)
Файл
Кодек: MPEG-4 AVC
Качество: BDRip 720p SbR
Видео: 7025 Кбит/с, 1280x690, 23.976 кадр/с
Звук:
Русский, украинский, английский (AC3, 6 ch, 448 Кбит/с)
Субтитры: русские, английские

Интересно

- Во время некоторых из наиболее эмоциональных сцен Эми Адамс пела песни из известных мюзиклов («Шоу ужасов Рокки Хоррора», 1975; «Энни», 1982), для того чтобы воспрянуть духом. В итоге Хоакин Феникс присоединился к ней, и они стали петь вместе. Однако, заметив, что в это время Спайк Джонс снимает их, они прекратили песнопения.
- Основные съемки состоялись летом 2012 года. Фильм был в основном снят в Лос-Анджелесе и Шанхае.
- Это единственный фильм, в котором Спайк Джонс является и режиссером, и сценаристом. Причем сценарий фильма является оригинальным и написан полностью самим Джонсом.
- Кэри Маллиган могла достаться роль в фильме, но ей пришлось покинуть проект из-за несогласованности расписаний съемок. В итоге ее роль получила Руни Мара.
- Первоначально голос Саманты озвучивала Саманта Мортон. Она каждый день присутствовала на съемочной площадке вместе с Хоакином Фениксом. После того как съемки закончились и пришло время монтажа, Спайк Джонс почувствовал, что что-то не так. Обсудив это с Мортон и получив ее благословение, он решил взять на ее роль другую актрису. В итоге голос Саманты был полностью переозвучен Скарлетт Йоханссон.
- Друг Джонса Стивен Содерберг помог ему укоротить фильм с двух с половиной часов до двух путем повторного монтажа. На всю эту операцию ушло всего 24 часа.
- Было отснято несколько сцен с Крисом Купером, но в финальную версию фильма они не вошли.
- Эми Адамс рассказала, что Спайк Джонс через день запирал ее и Хоакина Феникса в комнате на один или два часа, тем самым заставляя их разговаривать друг с другом. Джонс делал это для того, чтобы актеры узнали друг друга получше. Адамс отметила, что благодаря этому они с Фениксом действительно хорошо сдружились.
- Хотя Саманта Мортон и не получила роль в фильме, ее именем назвали операционную систему. Также в честь Эми Адамс был назван персонаж Эми.
- Скарлетт Йоханссон ранее уже озвучивала операционную систему, которая встречалась со своим владельцем. Это было в 19-й серии второго сезона сериала «Робоцып» (2005).
- Samantha — это название программы преобразования текста в речь на компьютерах Macintosh, которая по голосу напоминает виртуального помощника Siri (также созданного компанией Apple).
- Теодор сидит в своем офисе в светло-голубой рубашке, когда Саманта говорит ему, что у него встреча через пять минут. Затем, когда он через несколько минут встречает Эми и ее парня, на нем уже красная рубашка.
- На корешке книги по физике, которую читает герой, слово «неизвестный» (unknown) написано с ошибкой (unkown).

Награды

Оскар, 2014 год
Победитель (1):
Лучший сценарий
Номинации (4):
Лучший фильм
Лучшая работа художника-постановщика
Лучшая песня— «The Moon Song»
Лучший саундтрек
Золотой глобус, 2014 год
Победитель (1):
Лучший сценарий
Номинации (2):
Лучший фильм (комедия или мюзикл)
Лучшая мужская роль (комедия или мюзикл) (Хоакин Феникс)

MediaInfo

Общее
Уникальный идентификатор : 201567209663014927174034811699940423130 (0x97A46EB7A4693F1B9EE6305B5251F5DA)
Полное имя : Her.2013.BDRip.720p.AC3.mkv
Формат : Matroska
Версия формата : Version 4 / Version 2
Размер файла : 8,40 Гбайт
Продолжительность : 2 ч. 5 м.
Общий поток : 9558 Кбит/сек
Название фильма : Created by filin1984 for Кинозал.ТВ
Дата кодирования : UTC 2014-09-28 11:14:40
Программа кодирования : mkvmerge v6.9.1 ('Blue Panther') 64bit built on Apr 18 2014 18:23:38
Библиотека кодирования : libebml v1.3.0 + libmatroska v1.4.1
Видео
Идентификатор : 1
Формат : AVC
Формат/Информация : Advanced Video Codec
Профиль формата : High@L4.1
Параметр CABAC формата : Да
Параметр ReFrames формата : 9 кадров
Идентификатор кодека : V_MPEG4/ISO/AVC
Продолжительность : 2 ч. 5 м.
Битрейт : 7128 Кбит/сек
Ширина : 1280 пикселей
Высота : 690 пикселей
Соотношение сторон : 1,85:1
Соотношение сторон в оригинале : 1,85:1
Режим частоты кадров : Постоянный
Частота кадров : 23,976 кадра/сек
Цветовое пространство : YUV
Субдискретизация насыщенности : 4:2:0
Битовая глубина : 8 бит
Тип развёртки : Прогрессивная
Бит/(Пиксели*Кадры) : 0.337
Размер потока : 6,27 Гбайт (75%)
Заголовок : Her (2013)
Библиотека кодирования : x264 core 142 r2409+42 04be48a tMod [8-bit@all X86_64]
Настройки программы : cabac=1 / ref=9 / deblock=1:-3:-3 / analyse=0x3:0x133 / me=umh / subme=11 / psy=1 / fade_compensate=0.00 / psy_rd=1.00:0.00 / mixed_ref=1 / me_range=48 / chroma_me=1 / trellis=2 / 8x8dct=1 / cqm=0 / deadzone=21,11 / fast_pskip=0 / chroma_qp_offset=-2 / threads=12 / lookahead_threads=3 / sliced_threads=0 / nr=0 / decimate=0 / interlaced=0 / bluray_compat=0 / constrained_intra=0 / fgo=0 / bframes=16 / b_pyramid=2 / b_adapt=2 / b_bias=0 / direct=3 / weightb=1 / open_gop=0 / weightp=2 / keyint=250 / keyint_min=23 / scenecut=40 / intra_refresh=0 / rc=crf / mbtree=0 / crf=15.7500 / qcomp=0.70 / qpmin=0:0:0 / qpmax=69:69:69 / qpstep=4 / ip_ratio=1.30 / pb_ratio=1.20 / aq=1:0.90 / aq-sensitivity=10.00 / aq-factor=1.00:1.00:1.00 / aq2=0 / aq3=0
Язык : English
Default : Да
Forced : Нет
Аудио #1
Идентификатор : 2
Формат : AC-3
Формат/Информация : Audio Coding 3
Расширение режима : CM (complete main)
Параметр Endianness формата : Big
Идентификатор кодека : A_AC3
Продолжительность : 2 ч. 5 м.
Вид битрейта : Постоянный
Битрейт : 448 Кбит/сек
Каналы : 6 каналов
Расположение каналов : Front: L C R, Side: L R, LFE
Частота : 48,0 КГц
Битовая глубина : 16 бит
Метод сжатия : С потерями
Размер потока : 403 Мбайт (5%)
Язык : Russian
Default : Да
Forced : Нет
Аудио #2
Идентификатор : 3
Формат : AC-3
Формат/Информация : Audio Coding 3
Расширение режима : CM (complete main)
Параметр Endianness формата : Big
Идентификатор кодека : A_AC3
Продолжительность : 2 ч. 5 м.
Вид битрейта : Постоянный
Битрейт : 448 Кбит/сек
Каналы : 6 каналов
Расположение каналов : Front: L C R, Side: L R, LFE
Частота : 48,0 КГц
Битовая глубина : 16 бит
Метод сжатия : С потерями
Размер потока : 403 Мбайт (5%)
Заголовок : MVO
Язык : Russian
Default : Нет
Forced : Нет
Аудио #3
Идентификатор : 4
Формат : AC-3
Формат/Информация : Audio Coding 3
Расширение режима : CM (complete main)
Параметр Endianness формата : Big
Идентификатор кодека : A_AC3
Продолжительность : 2 ч. 5 м.
Вид битрейта : Постоянный
Битрейт : 448 Кбит/сек
Каналы : 6 каналов
Расположение каналов : Front: L C R, Side: L R, LFE
Частота : 48,0 КГц
Битовая глубина : 16 бит
Метод сжатия : С потерями
Размер потока : 403 Мбайт (5%)
Заголовок : VO А.Матвеев
Язык : Russian
Default : Нет
Forced : Нет
Аудио #4
Идентификатор : 5
Формат : AC-3
Формат/Информация : Audio Coding 3
Расширение режима : CM (complete main)
Параметр Endianness формата : Big
Идентификатор кодека : A_AC3
Продолжительность : 2 ч. 5 м.
Вид битрейта : Постоянный
Битрейт : 448 Кбит/сек
Каналы : 6 каналов
Расположение каналов : Front: L C R, Side: L R, LFE
Частота : 48,0 КГц
Битовая глубина : 16 бит
Метод сжатия : С потерями
Размер потока : 403 Мбайт (5%)
Язык : Ukrainian
Default : Нет
Forced : Нет
Аудио #5
Идентификатор : 6
Формат : AC-3
Формат/Информация : Audio Coding 3
Расширение режима : CM (complete main)
Параметр Endianness формата : Big
Идентификатор кодека : A_AC3
Продолжительность : 2 ч. 5 м.
Вид битрейта : Постоянный
Битрейт : 448 Кбит/сек
Каналы : 6 каналов
Расположение каналов : Front: L C R, Side: L R, LFE
Частота : 48,0 КГц
Битовая глубина : 16 бит
Метод сжатия : С потерями
Размер потока : 403 Мбайт (5%)
Язык : English
Default : Нет
Forced : Нет
Текст #1
Идентификатор : 7
Формат : UTF-8
Идентификатор кодека : S_TEXT/UTF8
Идентификатор кодека/Информация : UTF-8 Plain Text
Язык : Russian
Default : Нет
Forced : Нет
Текст #2
Идентификатор : 8
Формат : UTF-8
Идентификатор кодека : S_TEXT/UTF8
Идентификатор кодека/Информация : UTF-8 Plain Text
Язык : English
Default : Нет
Forced : Нет
Текст #3
Идентификатор : 9
Формат : UTF-8
Идентификатор кодека : S_TEXT/UTF8
Идентификатор кодека/Информация : UTF-8 Plain Text
Заголовок : SDH
Язык : English
Default : Нет
Forced : Нет
Текст #4
Идентификатор : 10
Формат : UTF-8
Идентификатор кодека : S_TEXT/UTF8
Идентификатор кодека/Информация : UTF-8 Plain Text
Заголовок : forced
Язык : Russian
Default : Да
Forced : Да
Текст #5
Идентификатор : 11
Формат : UTF-8
Идентификатор кодека : S_TEXT/UTF8
Идентификатор кодека/Информация : UTF-8 Plain Text
Заголовок : full (Arona)
Язык : Russian
Default : Нет
Forced : Нет
Меню
00:00:00.000 : en:00:00:00.000
00:10:02.560 : en:00:10:02.560
00:19:10.107 : en:00:19:10.107
00:32:12.681 : en:00:32:12.681
00:40:40.146 : en:00:40:40.146
00:52:38.197 : en:00:52:38.197
01:03:11.454 : en:01:03:11.454
01:12:45.027 : en:01:12:45.027
01:20:36.874 : en:01:20:36.874
01:30:02.105 : en:01:30:02.105
01:41:40.011 : en:01:41:40.011
01:50:33.293 : en:01:50:33.293
01:57:32.671 : en:01:57:32.671
[Профиль] [ЛС]
Показать сообщения:    

Текущее время: Сегодня 00:29

Часовой пояс: GMT



Вы не можете начинать темы
Вы не можете отвечать на сообщения
Вы не можете редактировать свои сообщения
Вы не можете удалять свои сообщения
Вы не можете голосовать в опросах
Вы не можете прикреплять файлы к сообщениям
Вы не можете скачивать файлы