Она придёт сегодня ночью / Tonight She Comes (2016) BDRip 1080p | L1

 
Author Message

BOSS ®

Gender:

Longevity: 4 years 9 months

Posts: 14123

Location: ODESSA



: 22 ()

Mega Seeder 3 (1) Mega Releaser 3 (1) Mega Seeder 1 (1)
Торрент-статистика

Post 18-Jul-2017 04:10

[Quote]

Производство: США, Twenty Eighteen Seventy-Six, Lamplight Films
Жанр: Ужасы
Режиссер: Мэтт Стуэрц
Актеры: Фрэнки Рэй, Jenna McDonald, Адам Хартли, Nathan Eswine, Dal Nicole ,Brock Russell ,Larissa White, Cameisha Cotton
Описание:
После того, как девушка Кристи пропала, две ее подруги и незнакомый почтальон оказываются запертыми в хижине в лесу, где Кристи исчезла. Они будут смеяться, они будут пить, они будут целоваться, они будут заниматься любовью, и ВСЕ ОНИ ДОЛЖНЫ УМЕРЕТЬ.

Продолжительность: 01:21:34
Качество видео: BDRip
Перевод: Любительский, одноголосый [Хихикающий доктор]
Видео: AVC/H.264, 1920х1040, ~9994 Kbps
Аудио 1: Русский (DTS, 6 ch, 1510 Кбит/с)
Аудио 2: Английский (DTS, 6 ch, 1509 Кбит/с)
Субтитры: Английские
Реклама: перед фильмом голосовая реклама.
Семпл

Mediainfo:

Общее
Уникальный идентификатор : 193495593919380963889826946846389366137 (0x9191E55602217159ADAEA75F554EED79)
Полное имя : E:MMMMTonight.She.Comes.2016.1080p.BDRip.x264.mkv
Формат : Matroska
Версия формата : Version 4 / Version 2
Размер файла : 7,41 Гбайт
Продолжительность : 1 ч. 21 м.
Общий поток : 13,0 Мбит/сек
Дата кодирования : UTC 2017-07-17 20:04:45
Программа кодирования : mkvmerge v6.9.1 ('Blue Panther') 64bit built on Apr 18 2014 18:23:38
Библиотека кодирования : libebml v1.3.0 + libmatroska v1.4.1
Видео
Идентификатор : 1
Формат : AVC
Формат/Информация : Advanced Video Codec
Профиль формата : High@L4.1
Параметр CABAC формата : Да
Параметр ReFrames формата : 4 кадра
Идентификатор кодека : V_MPEG4/ISO/AVC
Продолжительность : 1 ч. 21 м.
Битрейт : 9994 Кбит/сек
Ширина : 1920 пикселей
Высота : 1040 пикселей
Соотношение сторон : 1,85:1
Режим частоты кадров : Постоянный
Частота кадров : 23,976 (24000/1001) кадра/сек
Цветовое пространство : YUV
Субдискретизация насыщенности : 4:2:0
Битовая глубина : 8 бит
Тип развёртки : Прогрессивная
Бит/(Пиксели*Кадры) : 0.209
Размер потока : 5,54 Гбайт (75%)
Библиотека кодирования : x264 core 152 r2851 ba24899
Настройки программы : cabac=1 / ref=4 / deblock=1:0:0 / analyse=0x3:0x113 / me=umh / subme=8 / psy=1 / psy_rd=1.00:0.00 / mixed_ref=1 / me_range=16 / chroma_me=1 / trellis=2 / 8x8dct=1 / cqm=0 / deadzone=21,11 / fast_pskip=0 / chroma_qp_offset=-2 / threads=12 / lookahead_threads=2 / sliced_threads=0 / nr=0 / decimate=1 / interlaced=0 / bluray_compat=0 / constrained_intra=0 / bframes=3 / b_pyramid=2 / b_adapt=1 / b_bias=0 / direct=1 / weightb=1 / open_gop=0 / weightp=2 / keyint=250 / keyint_min=23 / scenecut=40 / intra_refresh=0 / rc_lookahead=50 / rc=2pass / mbtree=1 / bitrate=9994 / ratetol=1.0 / qcomp=0.60 / qpmin=0 / qpmax=69 / qpstep=4 / cplxblur=20.0 / qblur=0.5 / ip_ratio=1.40 / aq=1:1.00
Default : Да
Forced : Нет
Аудио #1
Идентификатор : 2
Формат : DTS
Формат/Информация : Digital Theater Systems
Режим : 16
Параметр Endianness формата : Big
Идентификатор кодека : A_DTS
Продолжительность : 1 ч. 21 м.
Вид битрейта : Постоянный
Битрейт : 1510 Кбит/сек
Каналы : 6 каналов
Расположение каналов : Front: L C R, Side: L R, LFE
Частота : 48,0 КГц
Частота кадров : 93,750 кадра/сек (512 spf)
Битовая глубина : 24 бит
Метод сжатия : С потерями
Размер потока : 881 Мбайт (12%)
Заголовок : Xixidoktor
Язык : Russian
Default : Да
Forced : Нет
Аудио #2
Идентификатор : 3
Формат : DTS
Формат/Информация : Digital Theater Systems
Режим : 16
Параметр Endianness формата : Big
Идентификатор кодека : A_DTS
Продолжительность : 1 ч. 21 м.
Вид битрейта : Постоянный
Битрейт : 1509 Кбит/сек
Каналы : 6 каналов
Расположение каналов : Front: L C R, Side: L R, LFE
Частота : 48,0 КГц
Частота кадров : 93,750 кадра/сек (512 spf)
Битовая глубина : 24 бит
Метод сжатия : С потерями
Размер потока : 880 Мбайт (12%)
Заголовок : original
Язык : English
Default : Нет
Forced : Нет
Текст
Идентификатор : 4
Формат : UTF-8
Идентификатор кодека : S_TEXT/UTF8
Идентификатор кодека/Информация : UTF-8 Plain Text
Язык : English
Default : Нет
Forced : Нет
Меню
00:00:00.000 : en:00:00:00.000
00:06:24.718 : en:00:06:24.718
00:13:38.651 : en:00:13:38.651
00:18:43.122 : en:00:18:43.122
00:24:19.458 : en:00:24:19.458
00:32:55.473 : en:00:32:55.473
00:39:16.521 : en:00:39:16.521
00:45:52.083 : en:00:45:52.083
00:55:00.172 : en:00:55:00.172
01:00:56.778 : en:01:00:56.778
01:06:49.339 : en:01:06:49.339
01:16:20.951 : en:01:16:20.951

Скриншоты:


[Profile] [PM]
Кто просматривает тему:

Display posts from previous:    

The time now is: Today 08:17

All times are GMT



You cannot post new topics in this forum
You cannot reply to topics in this forum
You cannot edit your posts in this forum
You cannot delete your posts in this forum
You cannot vote in polls in this forum
You cannot attach files in this forum
You cannot download files in this forum