Она – мужчина / She\'s the Man (Энди Фикман / Andy Fickman) [2006, США, Канада, мелодрама, комедия, WEB-DLRip] Dub + DVO + Sub Rus, Eng + Original Eng

 
Автор Сообщение

TorrentFilm ®

Пол:

Стаж: 2 года

Сообщений: 7741



Награды: Нет

Торрент-статистика

Создавать темы 04-Авг-2015 00:06

[Цитировать]

Она – мужчина / She's the Man
Страна: США, Канада
Жанр: мелодрама, комедия
Год выпуска: 2006
Продолжительность: 01:45:03
Перевод: Профессиональный (дублированный)
Перевод: Профессиональный (двухголосый закадровый)
Cубтитры: русские, английские
Оригинальная аудиодорожка: английский

Режиссер: Энди Фикман / Andy Fickman
В ролях: Аманда Байнс, Ченнинг Татум, Лаура Рэмси, Винни Джонс, Дэвид Кросс, Джули Хэгерти, Роберт Хоффман, Александра Брекенридж, Джонатан Садовский, Аманда Крю
Описание: 17-летняя Виола играет в футбол лучше, чем любой мальчишка. Когда футбольные тренировки для девушек отменяются, она решается на отчаянный шаг - выдает себя за брата-близнеца Себастьяна. Живя в образе юноши, Виола влюбляется в своего соседа по комнате Дюка, который в свою очередь влюблен в студентку Оливию, а Оливия очарована Виолой, не зная, что она девушка. В день решающей игры Виоле остается одно: доказать, что она - настоящий мужчина. По крайней мере, на футбольном поле...--Оригинал и субтитры с DVD
Дорожку с двухголоской любезно предоставил аласейа. Спасибо ему большое!--Качество видео: WEB-DLRip [She's.the.Man.2006.720p.WEB-DL.Rus.HDCLUB]
Формат видео: AVI
Видео: 704x400 (1.76:1), 24 fps, XviD build 73 ~1591 kbps avg, 0.23 bit/pixel
Аудио: 48 kHz, AC3 Dolby Digital, 3/2 (L,C,R,l,r) + LFE ch, ~384 kbps - дубляж
отдельными файлами:
Аудио: 48 kHz, AC3 Dolby Digital, 2/0 (L,R) ch, ~192 kbps - двухголосый
Аудио: 48 kHz, AC3 Dolby Digital, 3/2 (L,C,R,l,r) + LFE ch, ~448 kbps - оригинал

MediaInfo

Общее
Полное имя : H:\She's.the.Man.2006.web-dlrip_[1.46]_[teko]\She's.the.Man.2006.web-dlrip_[1.46].avi
Формат : AVI
Формат/Информация : Audio Video Interleave
Размер файла : 1,46 Гбайт
Продолжительность : 1 ч. 45 м.
Общий поток : 1985 Кбит/сек
Программа кодирования : VirtualDubMod 1.5.10.3 | www.virtualdub-fr.org || (build 2550/release)
Библиотека кодирования : VirtualDubMod build 2550/release
Видео
Идентификатор : 0
Формат : MPEG-4 Visual
Профиль формата : Advanced Simple@L5
Параметр BVOP формата : 1
Параметр QPel формата : Нет
Параметр GMC формата : Без точки перехода
Параметр матрицы формата : Выборочная
Идентификатор кодека : XVID
Идентификатор кодека/Подсказка : XviD
Продолжительность : 1 ч. 45 м.
Битрейт : 1592 Кбит/сек
Ширина : 704 пикселя
Высота : 400 пикселей
Соотношение сторон : 16:9
Частота кадров : 24,000 кадра/сек
Цветовое пространство : YUV
Субдискретизация насыщенности : 4:2:0
Битовая глубина : 8 бит
Тип развёртки : Прогрессивная
Метод сжатия : С потерями
Бит/(Пиксели*Кадры) : 0.236
Размер потока : 1,17 Гбайт (80%)
Библиотека кодирования : XviD 73
Аудио
Идентификатор : 1
Формат : AC-3
Формат/Информация : Audio Coding 3
Расширение режима : CM (complete main)
Параметр Endianness формата : Big
Идентификатор кодека : 2000
Продолжительность : 1 ч. 45 м.
Вид битрейта : Постоянный
Битрейт : 384 Кбит/сек
Каналы : 6 каналов
Расположение каналов : Front: L C R, Side: L R, LFE
Частота : 48,0 КГц
Битовая глубина : 16 бит
Метод сжатия : С потерями
Размер потока : 289 Мбайт (19%)
Выравнивание : Разделение по промежуткам
Продолжительность промежутка : 42 мс. (1,00 видеокадр)
Время предзагрузки промежутка : 500 мс.
Релиз группы:
--
[Профиль] [ЛС]

Создавать темы 06-Авг-2015 22:23 (спустя 2 дня 22 часа)

Топик был перенесен из форума Фильмы до 2014 года в форум Фильмы до 2012 года
sergej644
 
Кто просматривает тему:

Показать сообщения:    

Текущее время: Сегодня 04:18

Часовой пояс: GMT



Вы не можете начинать темы
Вы не можете отвечать на сообщения
Вы не можете редактировать свои сообщения
Вы не можете удалять свои сообщения
Вы не можете голосовать в опросах
Вы не можете прикреплять файлы к сообщениям
Вы не можете скачивать файлы