Омерзительная восьмерка / The Hateful Eight (2015) BDRip-AVC | iTunes

 
Автор Сообщение

Russian Mafia ®

Пол:

Стаж: 1 год 8 месяцев

Сообщений: 4257



Награды: 10 (Подробнее)

Mega Seeder 5 (Количество: 1) Top Releaser 4 (Количество: 1) Mega Seeder 3 (Количество: 1)
Торрент-статистика

Создавать темы 31-Мар-2016 07:23

[Цитировать]

Информация о фильме
Название: Омерзительная восьмерка
Оригинальное название: The Hateful Eight
Год выпуска: 2015
Страна: США
Жанр: триллер, драма, криминал, детектив, вестерн-Перевод: Дубляж - [iTunes]
Субтитры: русские (Forced), русские (Full Матвеев), английские (Full)
Продолжительность: 02:47:45-Режиссер: Квентин Тарантино
В ролях: Курт Рассел (John Ruth), Сэмюэл Л. Джексон (Major Marquis Warren), Тим Рот (Oswaldo Mobray), Майкл Мэдсен (Joe Gage), Дженнифер Джейсон Ли (Daisy Domergue), Уолтон Гоггинс (Sheriff Chris Mannix), Демиан Бишир (Bob), Брюс Дерн (General Sandy Smithers), Джеймс Паркс (O.B Jackson), Дэна Гурье (Minnie Mink), Зои Белл (Six-Horse Judy), Ли Хорсли (Ed)-Описание:
США после Гражданской войны. Легендарный охотник за головами Джон Рут по кличке Вешатель конвоирует заключенную. По пути к ним прибиваются еще несколько путешественников. Снежная буря вынуждает компанию искать укрытие в лавке на отшибе, где уже расположилось весьма пестрое общество: генерал конфедератов, мексиканец, ковбой... И один из них - не тот, за кого себя выдает.-Рейтинг:

MPAA: R - Лицам до 17 лет обязательно присутствие взрослого-Качество: BDRip-AVC
Формат: MKV
Видео: AVC, 1024x372 (2.753), 1858 kbps, 23,976 fps, 0,203 bpp
Аудио №1: русский / AC3 / 5.1 / 48 kHz / 384 kbps / 16 bit
Аудио №2: английский / AC3 / 5.1 / 48 kHz / 384 kbps / 16 bit
Навигация по главам: есть-Релиз от: by schultz

ОтчетМедиаИнфо

General
Unique ID : 180158238689788200412421873760141144593 (0x878936F417F592D8B2FFBE3DEB357211)
Complete name : D:downloadThe.Hateful.Eight.2015.BDRip-AVC by schultz R.G.Resident.mkv
Format : Matroska
Format version : Version 4 / Version 2
File size : 3.08 GiB
Duration : 2h 47mn
Overall bit rate : 2 628 Kbps
Movie name : HDA
Encoded date : UTC 2016-03-31 05:51:27
Writing application : mkvmerge v8.9.0 ('Father Daughter') 64bit
Writing library : libebml v1.3.3 + libmatroska v1.4.4
DURATION : 02:47:44.640000000
NUMBER_OF_FRAMES : 314520
NUMBER_OF_BYTES : 483102720
_STATISTICS_WRITING_APP : mkvmerge v8.9.0 ('Father Daughter') 64bit
_STATISTICS_WRITING_DATE_UTC : 2016-03-31 05:51:27
_STATISTICS_TAGS : BPS DURATION NUMBER_OF_FRAMES NUMBER_OF_BYTES
Video
ID : 1
Format : AVC
Format/Info : Advanced Video Codec
Format profile : High@L4.1
Format settings, CABAC : Yes
Format settings, ReFrames : 12 frames
Codec ID : V_MPEG4/ISO/AVC
Duration : 2h 47mn
Bit rate : 1 858 Kbps
Width : 1 024 pixels
Height : 372 pixels
Display aspect ratio : 2.753
Frame rate : 23.976 fps
Color space : YUV
Chroma subsampling : 4:2:0
Bit depth : 8 bits
Scan type : Progressive
Bits/(Pixel*Frame) : 0.203
Stream size : 2.12 GiB (69%)
Writing library : x264 core 146 r2538 121396c
Encoding settings : cabac=1 / ref=12 / deblock=1:-3:-3 / analyse=0x3:0x113 / me=umh / subme=11 / psy=1 / psy_rd=1.00:0.00 / mixed_ref=1 / me_range=48 / chroma_me=1 / trellis=2 / 8x8dct=1 / cqm=0 / deadzone=21,11 / fast_pskip=0 / chroma_qp_offset=-2 / threads=12 / lookahead_threads=2 / sliced_threads=0 / nr=0 / decimate=1 / interlaced=0 / bluray_compat=0 / constrained_intra=0 / bframes=13 / b_pyramid=2 / b_adapt=2 / b_bias=0 / direct=3 / weightb=1 / open_gop=0 / weightp=2 / keyint=240 / keyint_min=23 / scenecut=40 / intra_refresh=0 / rc_lookahead=40 / rc=2pass / mbtree=1 / bitrate=1858 / ratetol=1.0 / qcomp=0.60 / qpmin=0 / qpmax=69 / qpstep=4 / cplxblur=20.0 / qblur=0.5 / vbv_maxrate=14000 / vbv_bufsize=14000 / nal_hrd=none / filler=0 / ip_ratio=1.40 / aq=1:1.00
Language : English
Default : Yes
Forced : No
DURATION : 02:47:45.697000000
NUMBER_OF_FRAMES : 241335
NUMBER_OF_BYTES : 2337702192
_STATISTICS_WRITING_APP : mkvmerge v8.9.0 ('Father Daughter') 64bit
_STATISTICS_WRITING_DATE_UTC : 2016-03-31 05:51:27
_STATISTICS_TAGS : BPS DURATION NUMBER_OF_FRAMES NUMBER_OF_BYTES
Audio #1
ID : 2
Format : AC-3
Format/Info : Audio Coding 3
Mode extension : CM (complete main)
Codec ID : A_AC3
Duration : 2h 47mn
Bit rate mode : Constant
Bit rate : 384 Kbps
Channel(s) : 6 channels
Channel positions : Front: L C R, Side: L R, LFE
Sampling rate : 48.0 KHz
Bit depth : 16 bits
Compression mode : Lossy
Stream size : 461 MiB (15%)
Title : DUB iTunes
Language : Russian
Default : Yes
Forced : Yes
Audio #2
ID : 6
Format : AC-3
Format/Info : Audio Coding 3
Mode extension : CM (complete main)
Codec ID : A_AC3
Duration : 2h 47mn
Bit rate mode : Constant
Bit rate : 384 Kbps
Channel(s) : 6 channels
Channel positions : Front: L C R, Side: L R, LFE
Sampling rate : 48.0 KHz
Bit depth : 16 bits
Compression mode : Lossy
Stream size : 461 MiB (15%)
Default : No
Forced : No
Text #1
ID : 3
Format : UTF-8
Codec ID : S_TEXT/UTF8
Codec ID/Info : UTF-8 Plain Text
Title : Forced
Language : Russian
Default : Yes
Forced : Yes
Text #2
ID : 4
Format : UTF-8
Codec ID : S_TEXT/UTF8
Codec ID/Info : UTF-8 Plain Text
Title : Full Матвеев
Language : Russian
Default : No
Forced : No
Text #3
ID : 5
Format : UTF-8
Codec ID : S_TEXT/UTF8
Codec ID/Info : UTF-8 Plain Text
Title : Full
Language : English
Default : No
Forced : No
Menu
00:00:00.000 : en:Chapter 01
00:04:33.523 : en:Chapter 02
00:11:36.112 : en:Chapter 03
00:22:01.361 : en:Chapter 04
00:35:02.433 : en:Chapter 05
00:43:31.900 : en:Chapter 06
00:52:12.212 : en:Chapter 07
00:59:04.499 : en:Chapter 08
01:08:30.314 : en:Chapter 09
01:16:10.857 : en:Chapter 10
01:25:18.446 : en:Chapter 11
01:35:06.492 : en:Chapter 12
01:42:20.175 : en:Chapter 13
01:50:33.335 : en:Chapter 14
01:59:32.498 : en:Chapter 15
02:06:43.053 : en:Chapter 16
02:13:26.623 : en:Chapter 17
02:19:59.724 : en:Chapter 18
02:24:17.023 : en:Chapter 19
02:34:08.113 : en:Chapter 20
02:39:38.026 : en:Chapter 21
02:43:22.751 : en:Chapter 22
02:47:44.679 : en:Chapter 23

Скриншоты

[Профиль] [ЛС]
Показать сообщения:    

Текущее время: Сегодня 16:55

Часовой пояс: GMT



Вы не можете начинать темы
Вы не можете отвечать на сообщения
Вы не можете редактировать свои сообщения
Вы не можете удалять свои сообщения
Вы не можете голосовать в опросах
Вы не можете прикреплять файлы к сообщениям
Вы не можете скачивать файлы