Омен / The Omen (Джон Мур / John Moore) [2006, США, ужасы, триллер, детектив, BDRip] Dub

 
Автор Сообщение

painkiller ®

Стаж: 2 года 3 месяца

Сообщений: 582



Награды: Нет

Торрент-статистика

Создавать темы 16-Авг-2014 14:46

[Цитировать]

Омен / The Omen
Страна: США
Жанр: ужасы, триллер, детектив
Год выпуска: 2006
Продолжительность: 01:49:50
Перевод: Профессиональный (дублированный)
Cубтитры: русские на надписи и латынь
Режиссер: Джон Мур / John Moore
В ролях: Джулия Стайлз, Лив Шрайбер, Миа Фэрроу, Дэвид Тьюлис, Пит Постлетуэйт, Майкл Гэмбон, Шеймас Дэви-Фицпатрик
Описание: Многие верят в то, что в апокалипсисе предсказано страшное будущее человечества, которое начинает сбываться в наши дни. Приметы налицо: атаки террористов, экстремальные изменения климата… Cписок продолжает пополняться. Ещё чуть-чуть, и появится антихрист, который несёт на себе печать «666»: знак апокалипсического зверя.
Антихрист получит власть прямо от сатаны, чтобы установить на земле царство обмана и приблизить наступление армагеддона. Роберт Торн, американский дипломат высокого ранга, не интересуется мрачными предсказаниями. Он занят совсем другими мыслями: его жена Кэтрин перенесла тяжёлые роды и ещё не знает, что их новорожденный ребёнок умер. Торн боится, что Кэтрин, перенёсшая ранее два выкидыша, не выдержит такого удара…

Доп. информация:
Качество видео: BDRip | Daddy_BOSS/1080p BD-Remux
Формат видео: AVI
Видео: 720x384 (1.88:1), 23.976 fps, XviD build 73 ~1504 kbps avg, 0.23 bit/pixel
Аудио: 48 kHz, AC3 Dolby Digital, 3/2 (L,C,R,l,r) + LFE ch, ~384 kbps
Формат субтитров: softsub (SRT)

MediaInfo

Общее
Полное имя : C:\Documents and Settings\Пользователь\Рабочий стол\Торрентс.ру\The.Omen.2006.BDRip.Dub_by_LBS.avi
Формат : AVI
Формат/Информация : Audio Video Interleave
Размер файла : 1,46 Гбайт
Продолжительность : 1 ч. 49 м.
Общий поток : 1898 Кбит/сек
Режиссёр : Last Boy Scout
Программа кодирования : VirtualDubMod 1.5.10.3 | www.virtualdub-fr.org || (build 2550/release)
Правообладатель : torrentfilm.net 07.02.2014
Примечание : BDRip Dub + sub (надписи и латынь)
Видео
Идентификатор : 0
Формат : MPEG-4 Visual
Профиль формата : Advanced Simple@L5
Параметр BVOP формата : 1
Параметр QPel формата : Нет
Параметр GMC формата : Без точки перехода
Параметр матрицы формата : Выборочная
Идентификатор кодека : XVID
Идентификатор кодека/Подсказка : XviD
Продолжительность : 1 ч. 49 м.
Битрейт : 1505 Кбит/сек
Ширина : 720 пикселей
Высота : 384 пикселя
Соотношение сторон : 1,85:1
Частота кадров : 23,976 кадра/сек
Цветовое пространство : YUV
Субдискретизация насыщенности : 4:2:0
Битовая глубина : 8 бит
Тип развёртки : Прогрессивная
Метод сжатия : С потерями
Бит/(Пиксели*Кадры) : 0.227
Размер потока : 1,15 Гбайт (79%)
Библиотека кодирования : XviD 73
Аудио
Идентификатор : 1
Формат : AC-3
Формат/Информация : Audio Coding 3
Расширение режима : CM (complete main)
Параметр Endianness формата : Big
Идентификатор кодека : 2000
Продолжительность : 1 ч. 49 м.
Вид битрейта : Постоянный
Битрейт : 384 Кбит/сек
Каналы : 6 каналов
Расположение каналов : Front: L C R, Side: L R, LFE
Частота : 48,0 КГц
Битовая глубина : 16 бит
Метод сжатия : С потерями
Размер потока : 302 Мбайт (20%)
Выравнивание : Разделение по промежуткам
Продолжительность промежутка : 42 мс. (1,00 видеокадр)
Время предзагрузки промежутка : 500 мс.

Скриншоты

--
[Профиль] [ЛС]

Создавать темы 06-Авг-2015 23:09 (спустя 11 месяцев 21 день)

Топик был перенесен из форума Фильмы до 2014 года в форум Фильмы до 2012 года
sergej644
 
Показать сообщения:    

Текущее время: Сегодня 22:33

Часовой пояс: GMT



Вы не можете начинать темы
Вы не можете отвечать на сообщения
Вы не можете редактировать свои сообщения
Вы не можете удалять свои сообщения
Вы не можете голосовать в опросах
Вы не можете прикреплять файлы к сообщениям
Вы не можете скачивать файлы